BitTorrentTracker PerecTracker.org
BitTorrentTracker PerecTracker.org
    
Регистрация  ·  Вход
 
 · 
Забыли пароль?

  • Очень страшное кино 5 / Scary MoVie (Малкольм Д. Ли / Malcolm D. Lee) [2013, США, комедия, BDRip] Dub

    Ответить на тему
     
    Автор Сообщение

    Columb

    Создавать темы 24-Апр-2014 09:04

           

    [Цитировать]

    Очень страшное кино 5 / Scary MoVie-Страна: США
    Жанр: комедия
    Год выпуска: 2013
    Продолжительность: 01:25:46
    Перевод: Профессиональный (дублированный)
    Cубтитры: нет-Режиссер: Малкольм Д. Ли / Malcolm D. Lee
    В ролях: Эшли Тисдейл (Jody Sanders), Саймон Рекс (Dan Sanders), Эрика Эш (Kendra Brooks), Катрина Боуден (Natalie), Терри Крюс (Martin Jacobs), Хэзер Локлир (Barbara Morgan), Жан-Поль Мано (Pierre), Джерри О’Коннелл (Christian Grey), Молли Шеннон (Heather Darcy), Кейт Уолш (Mal), Снуп Догг (Ja' Marcus), Майк Тайсон (Mike Tyson), Чарли Шин (Charlie Sheen), Линдси Лохан (Lindsay Lohan).
    Описание: У молодой супружеской пары Дэна и Джоди родился малыш Эйден. После того как они привезли новорожденного домой, с ними начинают происходить странные вещи. Через некоторое время супруги понимают, что в их жилье заселилось нечто ужасное. Они решают обратиться за помощью к профессиональным специалистам и экстрасенсам. Однако все они оказываются мошенниками и не могут справиться с сверхъестественными силами. Тогда молодая пара решает расставить по всему дому видеокамеры, чтобы с их помощью понять, с чем же они имеют дело на самом деле и как с этим можно справиться. Удастся ли молодой счастливой семье избавиться от этого нечто?..-Качество видео: BDRip (источник: Blu-Ray Remux / 1080p)
    Формат видео: AVI | Sample
    Видео: 656x368 (16:9), 24.000 fps, XviD build 73 ~1082 kbps avg, 0.19 bit/pixel
    Аудио: 48 kHz, MPEG Layer 3, 2 ch, ~128.00 kbps avg

    Скриншоты


    Медиаинфо

    Общее
    Формат : AVI
    Формат/Информация : Audio Video Interleave
    Размер файла : 748 Мбайт
    Продолжительность : 1 ч. 25 м.
    Общий поток : 1219 Кбит/сек
    Программа кодирования : VirtualDubModRus 1.5.10.2 (build 2542/release)
    Библиотека кодирования : VirtualDubMod build 2542/release
    Видео
    Идентификатор : 0
    Формат : MPEG-4 Visual
    Профиль формата : Advanced Simple@L5
    Параметр BVOP формата : 1
    Параметр QPel формата : Нет
    Параметр GMC формата : Без точки перехода
    Параметр матрицы формата : Выборочная
    Идентификатор кодека : XVID
    Идентификатор кодека/Подсказка : XviD
    Продолжительность : 1 ч. 25 м.
    Битрейт : 1082 Кбит/сек
    Ширина : 656 пикселей
    Высота : 368 пикселей
    Соотношение сторон : 16:9
    Частота кадров : 24,000 кадра/сек
    Цветовое пространство : YUV
    Субдискретизация насыщенности : 4:2:0
    Битовая глубина : 8 бит
    Тип развёртки : Прогрессивная
    Метод сжатия : С потерями
    Бит/(Пиксели*Кадры) : 0.187
    Размер потока : 664 Мбайт (89%)
    Библиотека кодирования : XviD 73
    Аудио
    Идентификатор : 1
    Формат : MPEG Audio
    Версия формата : Version 1
    Профиль формата : Layer 3
    Идентификатор кодека : 55
    Идентификатор кодека/Подсказка : MP3
    Продолжительность : 1 ч. 25 м.
    Вид битрейта : Постоянный
    Битрейт : 128 Кбит/сек
    Каналы : 2 канала
    Частота : 48,0 КГц
    Метод сжатия : С потерями
    Размер потока : 78,5 Мбайт (10%)
    Выравнивание : Соединение по промежуткам
    Продолжительность промежутка : 42 мс. (1,00 видеокадр)
    Время предзагрузки промежутка : 504 мс.
    Библиотека кодирования : LAME3.99r
    Настройки программы : -m s -V 4 -q 2 -lowpass 17 -b 128
    Скачать .torrent

    Скачать торрент-файл бесплатно и на максимальной скорости!

    Как скачивать? · Что такое торрент? · Рейтинг и ограничения

    !ВНИМАНИЕ!
    Сайт не распространяет и не хранит электронные версии произведений, а занимается лишь лишь предоставлением доступа к создаваемому пользователями каталогу ссылок на торрент-файлы, которые содержат только списки хеш-сумм, убедительная просьба с жалобами обращаться напрямую к пользователю. Файлы для обмена на трекере предоставлены пользователями сайта, и администрация не несёт ответственности за их содержание. Просьба не заливать файлы, защищенные авторскими правами, а также файлы нелегального содержания!

    [Профиль] [ЛС]
    Показать сообщения:    
    Ответить на тему

    Текущее время: Сегодня, в 04:21

    Часовой пояс: GMT + 2



    Вы не можете начинать темы
    Вы не можете отвечать на сообщения
    Вы не можете редактировать свои сообщения
    Вы не можете удалять свои сообщения
    Вы не можете голосовать в опросах
    Вы не можете прикреплять файлы к сообщениям
    Вы не можете скачивать файлы