Register  ·  Log in
Forgot password?

  • Зажигание / Combustion (Даниэль Кальпарсоро / Daniel Calparsoro) [2013, Испания, мелодрама, приключения, боевик, BDRip] [SPA-Transfer] Dub BD

    Reply to topic
    Author Message


    Post 21-Apr-2014 14:50



    Зажигание / Combustion
    «И вспыхнет страсть»
    -Страна: Испания / Antena 3 Films, Antena 3 Television, Canal+ Espana
    Жанр: мелодрама, приключения, боевик
    Год выпуска: 2013
    Продолжительность: 01:43:37
    Перевод: Профессиональный (дублированный) лицензия BD
    Cубтитры: нет
    Режиссёр: Даниэль Кальпарсоро / Daniel Calparsoro
    В ролях: Алекс Гонсалес, Адриана Угарте, Альберто Амман, Мария Кастро, Луис Саера, Марта Ниэто, Кристиан Мулас, Хуан Пабло Шук, Мария Каласса.
    Описание: Навас и Ари — идеальная пара и профессиональные мошенники. Она — роковая красотка, соблазняющая богатых мужчин, а он — жестокий налетчик, который их грабит. Все меняется, когда Навас и Ари выбирают себе новую жертву — богатенького красавчика Микеля, в которого Ари влюбляется без памяти…-Рейтинг 5.70 (1 435) 6.281 (5 609)-Сэмпл:Качество видео: BDRip [COMBUSTION_BLUEBIRD]
    Формат видео: AVI
    Видео: XviD build 65, 720x304 (2.37:1), 24.000 fps, ~1563 kbps avg, 0.298 bit/pixel
    Аудио: 48 kHz, AC3 Dolby Digital, 3/2 (L,C,R,l,r) + LFE ch, ~448 kbps avg (Dub)


    Complete name : D:\Combustion.2013.Dub.SPA-Transfer.BDRip.1,46Gb.XviD.AC3.avi
    Format : AVI
    Format/Info : Audio Video Interleave
    File size : 1.46 GiB
    Duration : 1h 43mn
    Overall bit rate : 2 021 Kbps
    Movie name : Combustion 2013. SPA-Transfer
    Director : Daniel Calparsoro
    Recorded date : 04.10.2013
    Writing application : VirtualDubModRus (build 2542/release)
    Writing library : VirtualDubMod build 2542/release
    Copyright :
    Comment : MooN_WalkeR
    ID : 0
    Format : MPEG-4 Visual
    Format profile : Advanced Simple@L5
    Format settings, BVOP : 1
    Format settings, QPel : No
    Format settings, GMC : No warppoints
    Format settings, Matrix : Custom
    Codec ID : XVID
    Codec ID/Hint : XviD
    Duration : 1h 43mn
    Bit rate : 1 563 Kbps
    Width : 720 pixels
    Height : 304 pixels
    Display aspect ratio : 2.35:1
    Frame rate : 24.000 fps
    Color space : YUV
    Chroma subsampling : 4:2:0
    Bit depth : 8 bits
    Scan type : Progressive
    Compression mode : Lossy
    Bits/(Pixel*Frame) : 0.298
    Stream size : 1.13 GiB (77%)
    Writing library : XviD 65
    ID : 1
    Format : AC-3
    Format/Info : Audio Coding 3
    Mode extension : CM (complete main)
    Format settings, Endianness : Big
    Codec ID : 2000
    Duration : 1h 43mn
    Bit rate mode : Constant
    Bit rate : 448 Kbps
    Channel(s) : 6 channels
    Channel positions : Front: L C R, Side: L R, LFE
    Sampling rate : 48.0 KHz
    Bit depth : 16 bits
    Compression mode : Lossy
    Stream size : 332 MiB (22%)
    Alignment : Split accross interleaves
    Interleave, duration : 42 ms (1.00 video frame)
    Interleave, preload duration : 500 ms
    Title : Dub


    Download .torrent

    Download free and at maximum speed!

    How to Download? · What is a torrent? · Ratings and Limitations

    The site does not extend and does not store electronic(digital) versions of products, and only gives access to a reference catalogue created by users on torrent-files which contain only lists of the hash-sums, the earnest entreaty, with complaints(abuse) to access directly to the user. Files for an exchange on tracker are given by users of a site, and the administration does not bear the responsibility for their maintenance. The request to not fill in the files protected by copyrights, and also files of the illegal maintenance!

    [Profile] [PM]
    Display posts from previous:    
    Reply to topic

    The time now is: Today 03:38

    All times are GMT + 3 Hours

    You cannot post new topics in this forum
    You cannot reply to topics in this forum
    You cannot edit your posts in this forum
    You cannot delete your posts in this forum
    You cannot vote in polls in this forum
    You cannot attach files in this forum
    You cannot download files in this forum