BitTorrentTracker PerecTracker.org
BitTorrentTracker PerecTracker.org
    
Регистрация  ·  Вход
 
 · 
Забыли пароль?

  • Филомена / Philomena (Стивен Фрирз / Stephen Frears) [2013 г., Великобритания, США, Франция, драма, комедия, BDRip-AVC] Dub + Original (Eng) + Subs (Rus, Eng)

    Ответить на тему
     
    Автор Сообщение

    Columb

    Создавать темы 21-Апр-2014 07:01

           

    [Цитировать]

    Филомена / Philomena«These two unlikely companions are on a journey to find her long lost son»--Год выпуска: 2013
    Страна: Великобритания, США, Франция
    Жанр: драма, комедия
    Продолжительность: 01:37:43
    Перевод: Профессиональный (полное дублирование)
    Оригинальная аудиодорожка: английский
    Субтитры: русские, английские (Full + SDH + SDH-Colored)--Режиссер: Стивен Фрирз
    В ролях: Джуди Денч, Стив Куган, Софи Кеннеди Кларк, Мэр Уиннингхэм, Барбара Джеффорд, Рут МакКейб, Питер Хэрман, Шон Махон, Анна Максвелл Мартин, Мишель Фэйрли--Описание: Юная ирландка Филомена родила сына, будучи подростком, и её, как «падшую», отправили на «перевоспитание» в монастырь, а младенца отдали в усыновление в американскую семью. В монастыре Филомена подвергалась неисчислимым унижениям. Затем ей удалось вырваться оттуда, и она прожила достойную жизнь, но все эти годы пыталась безуспешно найти своего сына. Её историей заинтересовался отзывчивый человек Мартин Сиксмит — опытный журналист, занимающийся темой зловещей роли церкви в многочисленных сломанных судьбах…--Релиз от: ----Качество: BDRip-AVC (исходник: BDRemux)
    Формат: MKV
    Видео: x.264, 1032x558 (1,85:1), 24,000 fps, 2303 Кbps, 0.167 bit/pixel
    Аудио #1: 48 kHz, AC3 Dolby Digital, 3/2 (L,C,R,l,r) + LFE ch, 448.00 kbps | RUS
    Аудио #2: 48 kHz, AC3 Dolby Digital, 3/2 (L,C,R,l,r) + LFE ch, 448.00 kbps | ENG
    --

    MediaInfo:

    General
    Unique ID : 241811432788542156583086728543673183141 (0xB5EB301C329F9504AC88537B81C2EBA5)
    Complete name : C:\Users\Filomena.2013.DUAL.BDRip.x264.-HELLYWOOD.mkv
    Format : Matroska
    Format version : Version 4 / Version 2
    File size : 2.18 GiB
    Duration : 1h 37mn
    Overall bit rate : 3 200 Kbps
    Movie name : HELLYWOOD - rip by potroks
    Encoded date : UTC 2014-04-01 19:20:47
    Writing application : mkvmerge v5.9.0 ('On The Loose') built on Dec 15 2012 16:39:58
    Writing library : libebml v1.3.0 + libmatroska v1.4.0
    Video
    ID : 1
    Format : AVC
    Format/Info : Advanced Video Codec
    Format profile : High@L4.1
    Format settings, CABAC : Yes
    Format settings, ReFrames : 10 frames
    Codec ID : V_MPEG4/ISO/AVC
    Duration : 1h 37mn
    Bit rate : 2 303 Kbps
    Width : 1 032 pixels
    Height : 558 pixels
    Display aspect ratio : 1.85:1
    Frame rate mode : Constant
    Frame rate : 24.000 fps
    Color space : YUV
    Chroma subsampling : 4:2:0
    Bit depth : 8 bits
    Scan type : Progressive
    Bits/(Pixel*Frame) : 0.167
    Stream size : 1.53 GiB (70%)
    Title : Philomena
    Writing library : x264 core 130 r2273 b3065e6
    Encoding settings : cabac=1 / ref=10 / deblock=1:-3:-3 / analyse=0x3:0x133 / me=umh / subme=11 / psy=1 / psy_rd=0.93:0.00 / mixed_ref=1 / me_range=32 / chroma_me=1 / trellis=2 / 8x8dct=1 / cqm=0 / deadzone=21,11 / fast_pskip=0 / chroma_qp_offset=-2 / threads=9 / lookahead_threads=6 / sliced_threads=0 / nr=0 / decimate=0 / interlaced=0 / bluray_compat=0 / constrained_intra=0 / bframes=11 / b_pyramid=2 / b_adapt=2 / b_bias=0 / direct=3 / weightb=1 / open_gop=0 / weightp=2 / keyint=250 / keyint_min=23 / scenecut=40 / intra_refresh=0 / rc_lookahead=60 / rc=2pass / mbtree=0 / bitrate=2303 / ratetol=1.0 / qcomp=0.70 / qpmin=0 / qpmax=69 / qpstep=4 / cplxblur=20.0 / qblur=0.5 / vbv_maxrate=20000 / vbv_bufsize=25000 / nal_hrd=none / ip_ratio=1.35 / pb_ratio=1.25 / aq=1:1.00
    Language : English
    Default : Yes
    Forced : No
    Audio #1
    ID : 2
    Format : AC-3
    Format/Info : Audio Coding 3
    Mode extension : CM (complete main)
    Format settings, Endianness : Big
    Codec ID : A_AC3
    Duration : 1h 37mn
    Bit rate mode : Constant
    Bit rate : 448 Kbps
    Channel(s) : 6 channels
    Channel positions : Front: L C R, Side: L R, LFE
    Sampling rate : 48.0 KHz
    Bit depth : 16 bits
    Compression mode : Lossy
    Stream size : 313 MiB (14%)
    Title : Dub | DD 5.1 @ 448 kbps - BD RUS
    Language : Russian
    Default : Yes
    Forced : Yes
    Audio #2
    ID : 3
    Format : AC-3
    Format/Info : Audio Coding 3
    Mode extension : CM (complete main)
    Format settings, Endianness : Big
    Codec ID : A_AC3
    Duration : 1h 37mn
    Bit rate mode : Constant
    Bit rate : 448 Kbps
    Channel(s) : 5 channels
    Channel positions : Front: L C R, Side: L R
    Sampling rate : 48.0 KHz
    Bit depth : 16 bits
    Compression mode : Lossy
    Stream size : 313 MiB (14%)
    Title : Original | DD 5.1 @ 448 kbps
    Language : English
    Default : No
    Forced : No
    Text #1
    ID : 4
    Format : UTF-8
    Codec ID : S_TEXT/UTF8
    Codec ID/Info : UTF-8 Plain Text
    Language : Russian
    Default : No
    Forced : No
    Text #2
    ID : 5
    Format : UTF-8
    Codec ID : S_TEXT/UTF8
    Codec ID/Info : UTF-8 Plain Text
    Title : Full
    Language : English
    Default : No
    Forced : No
    Text #3
    ID : 6
    Format : UTF-8
    Codec ID : S_TEXT/UTF8
    Codec ID/Info : UTF-8 Plain Text
    Title : SDH
    Language : English
    Default : No
    Forced : No
    Text #4
    ID : 7
    Format : UTF-8
    Codec ID : S_TEXT/UTF8
    Codec ID/Info : UTF-8 Plain Text
    Title : SDH-Colored
    Language : English
    Default : No
    Forced : No
    Menu
    00:03:31.125 : en:(01)00:03:31:125
    00:11:02.332 : en:(02)00:11:02:332
    00:21:31.500 : en:(03)00:21:31:500
    00:27:02.165 : en:(04)00:27:02:165
    00:32:30.665 : en:(05)00:32:30:665
    00:35:58.833 : en:(06)00:35:58:833
    00:43:30.875 : en:(07)00:43:30:875
    00:49:11.458 : en:(08)00:49:11:458
    00:56:54.458 : en:(09)00:56:54:458
    01:01:22.458 : en:(10)01:01:22:458
    01:05:04.833 : en:(11)01:05:04:833
    01:10:30.750 : en:(12)01:10:30:750
    01:16:36.875 : en:(13)01:16:36:875
    01:22:44.832 : en:(14)01:22:44:832
    01:32:59.041 : en:(15)01:32:59:041

    Скриншоты:




    Скачать .torrent

    Скачать торрент-файл бесплатно и на максимальной скорости!

    Как скачивать? · Что такое торрент? · Рейтинг и ограничения

    !ВНИМАНИЕ!
    Сайт не распространяет и не хранит электронные версии произведений, а занимается лишь лишь предоставлением доступа к создаваемому пользователями каталогу ссылок на торрент-файлы, которые содержат только списки хеш-сумм, убедительная просьба с жалобами обращаться напрямую к пользователю. Файлы для обмена на трекере предоставлены пользователями сайта, и администрация не несёт ответственности за их содержание. Просьба не заливать файлы, защищенные авторскими правами, а также файлы нелегального содержания!

    [Профиль] [ЛС]
    Показать сообщения:    
    Ответить на тему

    Текущее время: Сегодня, в 11:07

    Часовой пояс: GMT + 2



    Вы не можете начинать темы
    Вы не можете отвечать на сообщения
    Вы не можете редактировать свои сообщения
    Вы не можете удалять свои сообщения
    Вы не можете голосовать в опросах
    Вы не можете прикреплять файлы к сообщениям
    Вы не можете скачивать файлы