BitTorrentTracker PerecTracker.org
BitTorrentTracker PerecTracker.org
    
Регистрация  ·  Вход
 
 · 
Забыли пароль?

  • Формула 1 / Сезон 2014 / Этап 4 / Гран-при Китая / 1-я, 2-я, 3-я практика, Квалификация / Спорт 1 HD [18.04.14, Формула 1, DVB-S2 Remux, 1080i, RU]

    Ответить на тему
     
    Автор Сообщение

    -sasha2006

    Создавать темы 19-Апр-2014 16:55

           

    [Цитировать]

    Формула 1 / Сезон 2014 / Этап 4 / Гран-при Китая / 1-я, 2-я, 3-я практика, Квалификация / Спорт 1 HD
    Вид спорта: Формула 1
    Дата/Год выпуска: 18.04.14
    Язык комментариев: русский
    Автор записи: SashaR.
    Качество: DVB-S2 Remux
    Формат видео: TS
    Видео: AVC, 1920x1080 (16:9), 13.0 Mbps, 25 fps
    Аудио: MP2, 192 Kbps, 48.0 kHz, 2 channels

    Media Info

    H:\Раздачи\Формула 1. Сезон 2014. Этап 4. Гран-при Китая (Спорт 1 HD)\1-я практика.ts
    General #6
    ID : 6 (0x6)
    Complete name : H:\Раздачи\Формула 1. Сезон 2014. Этап 4. Гран-при Китая (Спорт 1 HD)\1-я практика.ts
    Format : MPEG-TS
    File size : 9.69 GiB
    Duration : 1h 40mn
    Overall bit rate mode : Variable
    Overall bit rate : 13.9 Mbps
    Video #303
    ID : 303 (0x12F)
    Menu ID : 20103 (0x4E87)
    Format : AVC
    Format/Info : Advanced Video Codec
    Format profile : High@L4.0
    Format settings, CABAC : Yes
    Format settings, ReFrames : 3 frames
    Codec ID : 27
    Duration : 1h 40mn
    Bit rate : 13.0 Mbps
    Width : 1 920 pixels
    Height : 1 080 pixels
    Display aspect ratio : 16:9
    Frame rate : 25.000 fps
    Standard : Component
    Color space : YUV
    Chroma subsampling : 4:2:0
    Bit depth : 8 bits
    Scan type : Interlaced
    Scan order : Top Field First
    Bits/(Pixel*Frame) : 0.250
    Stream size : 9.08 GiB (94%)
    Color primaries : BT.709
    Transfer characteristics : BT.709
    Matrix coefficients : BT.709
    Audio #403
    ID : 403 (0x193)
    Menu ID : 20103 (0x4E87)
    Format : MPEG Audio
    Format version : Version 1
    Format profile : Layer 2
    Codec ID : 4
    Duration : 1h 40mn
    Bit rate mode : Constant
    Bit rate : 192 Kbps
    Channel count : 2 channels
    Sampling rate : 48.0 KHz
    Compression mode : Lossy
    Delay relative to video : 118ms
    Stream size : 138 MiB (1%)
    Language : Russian

    Продолжительность

    1-я практика - 01:40:08
    2-я практика - 01:38:45

    Скриншоты

    Счёт/Итог

    Скачать .torrent

    Скачать торрент-файл бесплатно и на максимальной скорости!

    Как скачивать? · Что такое торрент? · Рейтинг и ограничения

    !ВНИМАНИЕ!
    Сайт не распространяет и не хранит электронные версии произведений, а занимается лишь лишь предоставлением доступа к создаваемому пользователями каталогу ссылок на торрент-файлы, которые содержат только списки хеш-сумм, убедительная просьба с жалобами обращаться напрямую к пользователю. Файлы для обмена на трекере предоставлены пользователями сайта, и администрация не несёт ответственности за их содержание. Просьба не заливать файлы, защищенные авторскими правами, а также файлы нелегального содержания!


    _________________

    ░▒▓█▀▄▀▄▀▄█▓▒░
    [Профиль] [ЛС]
    Показать сообщения:    
    Ответить на тему

    Текущее время: Сегодня, в 16:02

    Часовой пояс: GMT + 2



    Вы не можете начинать темы
    Вы не можете отвечать на сообщения
    Вы не можете редактировать свои сообщения
    Вы не можете удалять свои сообщения
    Вы не можете голосовать в опросах
    Вы не можете прикреплять файлы к сообщениям
    Вы не можете скачивать файлы