BitTorrentTracker PerecTracker.org
BitTorrentTracker PerecTracker.org
    
Регистрация  ·  Вход
 
 · 
Забыли пароль?

  • Пришествие Дьявола / Devil's Due (Мэттью Беттинелли, Тайлер Джиллетт / Matt Bettinelli-Olpin, Tyler Gillett) [2014, США, ужасы, HDRip] Dub

    Ответить на тему
     
    Автор Сообщение

    Columb

    Создавать темы 19-Апр-2014 13:14

           

    [Цитировать]

    Пришествие Дьявола / Devil's Due
    Страна: США
    Жанр: ужасы
    Год выпуска: 2014
    Продолжительность: 01:29:01
    Перевод: Профессиональный (дублированный) Лицензия
    Cубтитры: нет
    Оригинальная аудиодорожка: нет
    Режиссер: Мэттью Беттинелли, Тайлер Джиллетт / Matt Bettinelli-Olpin, Tyler Gillett
    В ролях: Эллисон Миллер, Зак Гилфорд, Сэм Андерсон, Роджер Пейано, Ванесса Рэй, Билл Мартин Уильямс, Джеральдин Сингер, Джулия Дентон Френсис, Колин Уолкер, Мэдисон Вульф
    Описание: После странной ночи во время их медового месяца молодожены сталкиваются с проблемой незапланированной беременности. Постепенно муж начинает замечать необычные изменения в поведении жены, поначалу они списывают это на нервы, но по прошествии нескольких месяцев становится очевидным, что перемены в ее теле и разуме имеют более зловещее происхождение

    Сэмпл: http://multi-up.com/967828
    Качество видео: HDRip
    Формат видео: AVI
    Видео: 720x384 (1.88:1), 23.976 fps, XviD build 50 ~961 kbps avg, 0.14 bit/pixel
    Аудио: 48 kHz, AC3 Dolby Digital, 2/0 (L,R) ch, ~128 kbps

    MediaInfo

    General
    Complete name : D:\Фильмы\Prishestvie.Djavola.2014.D.HDRip.avi
    Format : AVI
    Format/Info : Audio Video Interleave
    File size : 700 MiB
    Duration : 1h 29mn
    Overall bit rate : 1 099 Kbps
    Writing application : VirtualDubMod 1.5.10.2 (build 2540/release)
    Writing library : VirtualDubMod build 2540/release
    Video
    ID : 0
    Format : MPEG-4 Visual
    Format profile : Advanced Simple@L5
    Format settings, BVOP : 2
    Format settings, QPel : No
    Format settings, GMC : No warppoints
    Format settings, Matrix : Custom
    Codec ID : XVID
    Codec ID/Hint : XviD
    Duration : 1h 29mn
    Bit rate : 962 Kbps
    Width : 720 pixels
    Height : 384 pixels
    Display aspect ratio : 1.85:1
    Frame rate : 23.976 fps
    Color space : YUV
    Chroma subsampling : 4:2:0
    Bit depth : 8 bits
    Scan type : Progressive
    Compression mode : Lossy
    Bits/(Pixel*Frame) : 0.145
    Stream size : 612 MiB (87%)
    Writing library : XviD 1.2.1 (UTC 2008-12-04)
    Audio
    ID : 1
    Format : AC-3
    Format/Info : Audio Coding 3
    Mode extension : CM (complete main)
    Format settings, Endianness : Big
    Codec ID : 2000
    Duration : 1h 29mn
    Bit rate mode : Constant
    Bit rate : 128 Kbps
    Channel(s) : 2 channels
    Channel positions : Front: L R
    Sampling rate : 48.0 KHz
    Bit depth : 16 bits
    Compression mode : Lossy
    Stream size : 81.5 MiB (12%)
    Alignment : Split accross interleaves
    Interleave, duration : 42 ms (1.00 video frame)
    Interleave, preload duration : 500 ms

    Скриншот c названием фильма

    Скриншоты

    Скачать .torrent

    Скачать торрент-файл бесплатно и на максимальной скорости!

    Как скачивать? · Что такое торрент? · Рейтинг и ограничения

    !ВНИМАНИЕ!
    Сайт не распространяет и не хранит электронные версии произведений, а занимается лишь лишь предоставлением доступа к создаваемому пользователями каталогу ссылок на торрент-файлы, которые содержат только списки хеш-сумм, убедительная просьба с жалобами обращаться напрямую к пользователю. Файлы для обмена на трекере предоставлены пользователями сайта, и администрация не несёт ответственности за их содержание. Просьба не заливать файлы, защищенные авторскими правами, а также файлы нелегального содержания!

    [Профиль] [ЛС]
    Показать сообщения:    
    Ответить на тему

    Текущее время: Сегодня, в 21:18

    Часовой пояс: GMT + 2



    Вы не можете начинать темы
    Вы не можете отвечать на сообщения
    Вы не можете редактировать свои сообщения
    Вы не можете удалять свои сообщения
    Вы не можете голосовать в опросах
    Вы не можете прикреплять файлы к сообщениям
    Вы не можете скачивать файлы