BitTorrentTracker PerecTracker.org
BitTorrentTracker PerecTracker.org
    
Регистрация  ·  Вход
 
 · 
Забыли пароль?

  • Совсем не бабник / Cedar Rapids (Мигель Артета / Miguel Arteta) [2011, США, комедия, HDRip] MVO (AB Video) + Original Eng

    Ответить на тему
     
    Автор Сообщение

    Columb

    Создавать темы 19-Апр-2014 13:12

           

    [Цитировать]

    Совсем не бабник / Cedar Rapids
    Страна: США
    Студия: Ad Hominem Enterprises
    Жанр: комедия
    Год выпуска: 2011
    Продолжительность: 01:26:56
    Перевод: Профессиональный (многоголосый закадровый) AB Video
    Cубтитры: нет
    Оригинальная аудиодорожка: английский
    Режиссер: Мигель Артета / Miguel Arteta
    В ролях: (Ronald Wilkes), Стивен Рут (Bill Krogstad), Кертвуд Смит (Orin Helgesson), Алиа Шокат (Bree), Томас Леннон (Roger Lemke), Роб Кордри (Gary), Майк О’Мэлли (Mike Pyle), Сигурни Уивер (Macy Vanderhei), Инга Р. Уилсон (Gwen Lemke)
    Описание: После того, как его коллега умирает от асфиксии во время акта самоудовлетворения, наивный провинциал из захолустья занимает его место в райцентре, теряя голову от соблазнов «большого города», постепенно выходя из раковины и раскрывая махинацию по отмывке денег с участием своего нанимателя.
    II Сэмпл II IMDB II
    Качество видео: HDRip
    Формат видео: AVI
    Видео: Xvid 720x384 (1,85:1) 23,976 fps Bit rate 1747Kbps b/p 0.264
    Аудио 1: AC3 48.0KHz 2ch 192 Kbps rus mvo
    Аудио 2: AC3 48.0KHz 6ch 448 Kbps eng

    MediaInfo

    Общее
    Полное имя : E:\torrent\Cedar.Rapids.2011.HDRip.avi
    Формат : AVI
    Формат/Информация : Audio Video Interleave
    Размер файла : 1,46 Гбайт
    Продолжительность : 1 ч. 26 м.
    Общий поток : 2401 Кбит/сек
    Программа кодирования : VirtualDubMod 1.5.10.2 (build 2540/release)
    Библиотека кодирования : VirtualDubMod build 2540/release
    Видео
    Идентификатор : 0
    Формат : MPEG-4 Visual
    Профиль формата : Advanced Simple@L5
    Параметр BVOP формата : 2
    Параметр QPel формата : Нет
    Параметр GMC формата : Без точки перехода
    Параметр матрицы формата : Default (H.263)
    Идентификатор кодека : XVID
    Идентификатор кодека/Подсказка : XviD
    Продолжительность : 1 ч. 26 м.
    Битрейт : 1747 Кбит/сек
    Ширина : 720 пикселей
    Высота : 384 пикселя
    Соотношение сторон : 1,85:1
    Частота кадров : 23,976 кадра/сек
    Цветовое пространство : YUV
    Субдискретизация насыщенности : 4:2:0
    Битовая глубина : 8 бит
    Тип развёртки : Прогрессивная
    Метод сжатия : С потерями
    Бит/(Пиксели*Кадры) : 0.264
    Размер потока : 1,06 Гбайт (73%)
    Библиотека кодирования : XviD 1.2.1 (UTC 2008-12-04)
    Аудио #1
    Идентификатор : 1
    Формат : AC-3
    Формат/Информация : Audio Coding 3
    Расширение режима : CM (complete main)
    Параметр Endianness формата : Big
    Идентификатор кодека : 2000
    Продолжительность : 1 ч. 26 м.
    Вид битрейта : Постоянный
    Битрейт : 192 Кбит/сек
    Каналы : 2 канала
    Расположение каналов : Front: L R
    Частота : 48,0 КГц
    Битовая глубина : 16 бит
    Метод сжатия : С потерями
    Размер потока : 119 Мбайт (8%)
    Выравнивание : Разделение по промежуткам
    Продолжительность промежутка : 42 мс. (1,00 видеокадр)
    Время предзагрузки промежутка : 500 мс.
    Аудио #2
    Идентификатор : 2
    Формат : AC-3
    Формат/Информация : Audio Coding 3
    Расширение режима : CM (complete main)
    Параметр Endianness формата : Big
    Идентификатор кодека : 2000
    Продолжительность : 1 ч. 26 м.
    Вид битрейта : Постоянный
    Битрейт : 448 Кбит/сек
    Каналы : 6 каналов
    Расположение каналов : Front: L C R, Side: L R, LFE
    Частота : 48,0 КГц
    Битовая глубина : 16 бит
    Метод сжатия : С потерями
    Размер потока : 279 Мбайт (19%)
    Выравнивание : Разделение по промежуткам
    Продолжительность промежутка : 42 мс. (1,00 видеокадр)
    Время предзагрузки промежутка : 500 мс.

    Скриншот c названием фильма

    Скриншоты

    Скачать .torrent

    Скачать торрент-файл бесплатно и на максимальной скорости!

    Как скачивать? · Что такое торрент? · Рейтинг и ограничения

    !ВНИМАНИЕ!
    Сайт не распространяет и не хранит электронные версии произведений, а занимается лишь лишь предоставлением доступа к создаваемому пользователями каталогу ссылок на торрент-файлы, которые содержат только списки хеш-сумм, убедительная просьба с жалобами обращаться напрямую к пользователю. Файлы для обмена на трекере предоставлены пользователями сайта, и администрация не несёт ответственности за их содержание. Просьба не заливать файлы, защищенные авторскими правами, а также файлы нелегального содержания!

    [Профиль] [ЛС]
    Показать сообщения:    
    Ответить на тему

    Текущее время: Сегодня, в 16:27

    Часовой пояс: GMT + 2



    Вы не можете начинать темы
    Вы не можете отвечать на сообщения
    Вы не можете редактировать свои сообщения
    Вы не можете удалять свои сообщения
    Вы не можете голосовать в опросах
    Вы не можете прикреплять файлы к сообщениям
    Вы не можете скачивать файлы