BitTorrentTracker PerecTracker.org
BitTorrentTracker PerecTracker.org
    
Регистрация  ·  Вход
 
 · 
Забыли пароль?

  • Мы – Миллеры / We're the Millers (Роусон Маршалл Тёрбер / Rawson Marshall Thurber) [2013, США, комедия, криминал, HDRip] [Theatrical Cut] Dub

    Ответить на тему
     
    Автор Сообщение

    Columb

    Создавать темы 19-Апр-2014 13:10

           

    [Цитировать]

    Мы – Миллеры / We're the Millers-Страна: США
    Жанр: комедия, криминал
    Год выпуска: 2013
    Продолжительность: 01:49:53
    Перевод: Профессиональный (дублированный)
    Cубтитры: нет-Режиссер: Роусон Маршалл Тёрбер / Rawson Marshall Thurber
    В ролях: Дженнифер Энистон (Rose O'Reilly), Джейсон Судейкис (David Clark), Эмма Робертс (Casey Mathis), Уилл Поултер (Kenny Rossmore), Эд Хелмс (Brad Gurdlinger), Ник Офферман (Don Fitzgerald), Кэтрин Хан (Edie Fitzgerald), Молли С. Куинн (Melissa Fitzgerald), Томер Сисле (Pablo Chacon), Мэттью Уиллиг (One-Eye).
    Описание: Дэвид Кларк предпочитает зарабатывать на жизнь незаконным путем — он торгует легкими наркотиками. Его клиентами являются замученные работой шеф-повара ресторанов и скучающие от однообразной жизни домохозяйки. У Дэвида так же есть золотое правило — не продавать «дурь» несовершеннолетним. Однажды у Дэвида возникают огромные проблемы: он остался должен поставщику крупную сумму денег. Однако ему готовы простить долг в том случае, если он доставит из Мексики партию марихуаны. У парня не остается другого выбора, как согласиться на это предложение. Теперь ему нужен четкий план, с помощью которого он сможет перевезти контрабанду через границу. Как правило меньше всего подозрений вызывают путешествующие семьи, и тогда Дэвид решают создать такую семью. Членами семейства становятся его соседи: стриптизерша Роуз, молодой покупатель марихуаны Кенни и уличная девочка по имени Кейси. Теперь их всех ждут невероятные приключения...-Качество видео: HDRip (источник: BDRip / 1080p)
    Формат видео: AVI | Sample
    Видео: 720x304 (2.35:1), 23.976 fps, XviD build 73 ~1430 kbps avg, 0.27 bit/pixel
    Аудио: 48 kHz, AC3 Dolby Digital, 3/2 (L,C,R,l,r) + LFE ch, ~448.00 kbps avg

    Скриншоты

    Медиаинфо

    Общее
    Формат : AVI
    Формат/Информация : Audio Video Interleave
    Размер файла : 1,45 Гбайт
    Продолжительность : 1 ч. 49 м.
    Общий поток : 1887 Кбит/сек
    Программа кодирования : VirtualDubModRus 1.5.10.2 (build 2542/release)
    Библиотека кодирования : VirtualDubMod build 2542/release
    Видео
    Идентификатор : 0
    Формат : MPEG-4 Visual
    Профиль формата : Advanced Simple@L5
    Параметр BVOP формата : 1
    Параметр QPel формата : Нет
    Параметр GMC формата : Без точки перехода
    Параметр матрицы формата : Выборочная
    Идентификатор кодека : XVID
    Идентификатор кодека/Подсказка : XviD
    Продолжительность : 1 ч. 49 м.
    Битрейт : 1430 Кбит/сек
    Ширина : 720 пикселей
    Высота : 304 пикселя
    Соотношение сторон : 2,35:1
    Частота кадров : 23,976 кадра/сек
    Цветовое пространство : YUV
    Субдискретизация насыщенности : 4:2:0
    Битовая глубина : 8 бит
    Тип развёртки : Прогрессивная
    Метод сжатия : С потерями
    Бит/(Пиксели*Кадры) : 0.272
    Размер потока : 1,10 Гбайт (76%)
    Библиотека кодирования : XviD 73
    Аудио
    Идентификатор : 1
    Формат : AC-3
    Формат/Информация : Audio Coding 3
    Расширение режима : CM (complete main)
    Параметр Endianness формата : Big
    Идентификатор кодека : 2000
    Продолжительность : 1 ч. 49 м.
    Вид битрейта : Постоянный
    Битрейт : 448 Кбит/сек
    Каналы : 6 каналов
    Расположение каналов : Front: L C R, Side: L R, LFE
    Частота : 48,0 КГц
    Битовая глубина : 16 бит
    Метод сжатия : С потерями
    Размер потока : 352 Мбайт (24%)
    Выравнивание : Разделение по промежуткам
    Продолжительность промежутка : 42 мс. (1,00 видеокадр)
    Время предзагрузки промежутка : 500 мс.
    Скачать .torrent

    Скачать торрент-файл бесплатно и на максимальной скорости!

    Как скачивать? · Что такое торрент? · Рейтинг и ограничения

    !ВНИМАНИЕ!
    Сайт не распространяет и не хранит электронные версии произведений, а занимается лишь лишь предоставлением доступа к создаваемому пользователями каталогу ссылок на торрент-файлы, которые содержат только списки хеш-сумм, убедительная просьба с жалобами обращаться напрямую к пользователю. Файлы для обмена на трекере предоставлены пользователями сайта, и администрация не несёт ответственности за их содержание. Просьба не заливать файлы, защищенные авторскими правами, а также файлы нелегального содержания!

    [Профиль] [ЛС]
    Показать сообщения:    
    Ответить на тему

    Текущее время: Сегодня, в 22:29

    Часовой пояс: GMT + 2



    Вы не можете начинать темы
    Вы не можете отвечать на сообщения
    Вы не можете редактировать свои сообщения
    Вы не можете удалять свои сообщения
    Вы не можете голосовать в опросах
    Вы не можете прикреплять файлы к сообщениям
    Вы не можете скачивать файлы