BitTorrentTracker PerecTracker.org
BitTorrentTracker PerecTracker.org
    
Регистрация  ·  Вход
 
 · 
Забыли пароль?

  • Ржавая сталь / Rusty Steel (Йон Йонеску / Ion Ionescu) [2013, США, Приключения, HDTVRip] DVO (НТВ+)

    Ответить на тему
     
    Автор Сообщение

    Columb

    Создавать темы 18-Апр-2014 20:59

           

    [Цитировать]

    Ржавая сталь / Rusty Steel-Страна: США
    Жанр: Приключения
    Год выпуска: 2013
    Продолжительность: 01:29:36
    Перевод: Профессиональный (двухголосый закадровый) НТВ+
    Cубтитры: нет
    Режиссер: Йон Йонеску / Ion Ionescu
    В ролях: Йоханн Урб, Ирина Буческу, Пол Кэмпбелл, Дин Стoкуэлл
    Описание: Братья-американцы приезжают в Румынию, чтобы вступить в права наследства, оставленного им дядей. Каково же их рахочарование, когда все наследство заключается в старой ржавой посудине под названием «Ржавая сталь». Братья даже подумывают вернуться в США, но дядины дневники толкают их к поискам.
    Сэмпл: http://multi-up.com/967869
    Качество видео: HDTVRip
    Формат видео: AVI
    Видео: 720x384 (1.85:1), 25 fps, XviD MPEG-4 ~1990 kbps avg, 0.288 bit/pixel
    Аудио: 48 kHz, AC3 Dolby Digital, 2/0 (L,R) ch, ~192 kbps - Профессиональный (двухголосый закадровый) НТВ+
    &

    MediaInfo

    Общее
    Полное имя : D:\Рипы\Rusty.Steel.2013.HDTVRip.avi
    Формат : AVI
    Формат/Информация : Audio Video Interleave
    Размер файла : 1,37 Гбайт
    Продолжительность : 1 ч. 29 м.
    Общий поток : 2191 Кбит/сек
    Название фильма : Rusty.Steel.2013.HDTVRip
    Режиссёр : rip by maygli
    Программа кодирования : VirtualDubModRus 1.5.10.2 (build 2542/release)
    Правообладатель : ... (RG Rulya74)
    Видео
    Идентификатор : 0
    Формат : MPEG-4 Visual
    Профиль формата : Advanced Simple@L5
    Параметр BVOP формата : 1
    Параметр QPel формата : Нет
    Параметр GMC формата : Без точки перехода
    Параметр матрицы формата : Выборочная
    Идентификатор кодека : XVID
    Идентификатор кодека/Подсказка : XviD
    Продолжительность : 1 ч. 29 м.
    Битрейт : 1990 Кбит/сек
    Ширина : 720 пикселей
    Высота : 384 пикселя
    Соотношение сторон : 1,85:1
    Частота кадров : 25,000 кадров/сек
    Цветовое пространство : YUV
    Субдискретизация насыщенности : 4:2:0
    Битовая глубина : 8 бит
    Тип развёртки : Прогрессивная
    Метод сжатия : С потерями
    Бит/(Пиксели*Кадры) : 0.288
    Размер потока : 1,25 Гбайт (91%)
    Библиотека кодирования : XviD 65
    Аудио
    Идентификатор : 1
    Формат : AC-3
    Формат/Информация : Audio Coding 3
    Расширение режима : CM (complete main)
    Параметр Endianness формата : Big
    Идентификатор кодека : 2000
    Продолжительность : 1 ч. 29 м.
    Вид битрейта : Постоянный
    Битрейт : 192 Кбит/сек
    Каналы : 2 канала
    Расположение каналов : Front: L R
    Частота : 48,0 КГц
    Битовая глубина : 16 бит
    Метод сжатия : С потерями
    Размер потока : 123 Мбайт (9%)
    Выравнивание : Разделение по промежуткам
    Продолжительность промежутка : 40 мс. (1,00 видеокадр)
    Время предзагрузки промежутка : 500 мс.
    Заголовок : Профессиональный (двухголосый закадровый) НТВ+

    Скриншот c названием фильма

    Скриншоты

    Скачать .torrent

    Скачать торрент-файл бесплатно и на максимальной скорости!

    Как скачивать? · Что такое торрент? · Рейтинг и ограничения

    !ВНИМАНИЕ!
    Сайт не распространяет и не хранит электронные версии произведений, а занимается лишь лишь предоставлением доступа к создаваемому пользователями каталогу ссылок на торрент-файлы, которые содержат только списки хеш-сумм, убедительная просьба с жалобами обращаться напрямую к пользователю. Файлы для обмена на трекере предоставлены пользователями сайта, и администрация не несёт ответственности за их содержание. Просьба не заливать файлы, защищенные авторскими правами, а также файлы нелегального содержания!

    [Профиль] [ЛС]
    Показать сообщения:    
    Ответить на тему

    Текущее время: Сегодня, в 01:10

    Часовой пояс: GMT + 2



    Вы не можете начинать темы
    Вы не можете отвечать на сообщения
    Вы не можете редактировать свои сообщения
    Вы не можете удалять свои сообщения
    Вы не можете голосовать в опросах
    Вы не можете прикреплять файлы к сообщениям
    Вы не можете скачивать файлы