BitTorrentTracker PerecTracker.org
BitTorrentTracker PerecTracker.org
    
Регистрация  ·  Вход
 
 · 
Забыли пароль?

  • Команда восемь: В тылу врага / Seal Team Eight: Behind Enemy Lines (Роэль Рейн / Roel Reiné) [2014, США, Боевик, Военный, BDRip] MVO (iTunes)

    Ответить на тему
     
    Автор Сообщение

    Columb

    Создавать темы 18-Апр-2014 13:52

           

    [Цитировать]

    Команда восемь: В тылу врага / Seal Team Eight: Behind Enemy Lines0 / 10 | 4/80-Страна: США
    Жанр: Боевик, Военный
    Год выпуска: 2014
    Продолжительность: 01:37:39
    Перевод: Профессиональный (многоголосый закадровый) |iTunes|
    Cубтитры: нет
    Оригинальная аудиодорожка: нет--Режиссер:
    Роэль Рейн / Roel Reiné--В ролях:
    Том Сайзмор, Лэнгли Кирквуд, Таня ван Граан, Лекс Шрэпнел, Юджин Хумбанйива, Бонни Ли Буман, Орели Мерьель, Дилан Эди, Дэррон Каллиган, Энтони Осейеми--Описание:
    Команда Восемь должна бороться далеко в Африке, на секретном урановом руднике и помешать своему опасному врагу провезти контрабандой опасное оружие за границу.--Качество видео: BDRip | исх. [Seal Team Eight: Behind Enemy Lines (2014).1080p.BD-Remux.HDClub]
    Формат видео: AVI | Sample
    Видео: 624x352 (16:9), 23.976 fps, XviD build 65 ~938 kbps avg, 0.17 bit/pixel
    Аудио: 48.0 kHz, MPEG Layer 3, 2 ch, ~128.00 kbps avg | (MVO)

    MediaInfo

    Общее
    Полное имя : A:\Фильмы\Seal Team Eight Behind Enemy Lines.2014.BDRip.XviD.751Mb.mp3.avi
    Формат : AVI
    Формат/Информация : Audio Video Interleave
    Размер файла : 751 Мбайт
    Продолжительность : 1 ч. 37 м.
    Общий поток : 1075 Кбит/сек
    Программа кодирования : VirtualDubMod 1.5.10.2 (build 2540/release)
    Библиотека кодирования : VirtualDubMod build 2540/release
    Правообладатель : Rutracker.org
    Примечание : B.A.T.U.S.A.Y.
    Видео
    Идентификатор : 0
    Формат : MPEG-4 Visual
    Профиль формата : Advanced Simple@L5
    Параметр BVOP формата : 1
    Параметр QPel формата : Нет
    Параметр GMC формата : Без точки перехода
    Параметр матрицы формата : Выборочная
    Идентификатор кодека : XVID
    Идентификатор кодека/Подсказка : XviD
    Продолжительность : 1 ч. 37 м.
    Битрейт : 938 Кбит/сек
    Ширина : 624 пикселя
    Высота : 352 пикселя
    Соотношение сторон : 16:9
    Частота кадров : 23,976 кадра/сек
    Цветовое пространство : YUV
    Субдискретизация насыщенности : 4:2:0
    Битовая глубина : 8 бит
    Тип развёртки : Прогрессивная
    Метод сжатия : С потерями
    Бит/(Пиксели*Кадры) : 0.178
    Размер потока : 655 Мбайт (87%)
    Библиотека кодирования : XviD 65
    Аудио
    Идентификатор : 1
    Формат : MPEG Audio
    Версия формата : Version 1
    Профиль формата : Layer 3
    Идентификатор кодека : 55
    Идентификатор кодека/Подсказка : MP3
    Продолжительность : 1 ч. 37 м.
    Вид битрейта : Постоянный
    Битрейт : 128 Кбит/сек
    Каналы : 2 канала
    Частота : 48,0 КГц
    Метод сжатия : С потерями
    Размер потока : 89,4 Мбайт (12%)
    Выравнивание : Соединение по промежуткам
    Продолжительность промежутка : 42 мс. (1,00 видеокадр)
    Время предзагрузки промежутка : 504 мс.
    Библиотека кодирования : LAME3.99r
    Настройки программы : -m s -V 4 -q 2 -lowpass 17 -b 128
    Заголовок : RUS

    Скриншот c названием фильма

    Скриншоты

    Скачать .torrent

    Скачать торрент-файл бесплатно и на максимальной скорости!

    Как скачивать? · Что такое торрент? · Рейтинг и ограничения

    !ВНИМАНИЕ!
    Сайт не распространяет и не хранит электронные версии произведений, а занимается лишь лишь предоставлением доступа к создаваемому пользователями каталогу ссылок на торрент-файлы, которые содержат только списки хеш-сумм, убедительная просьба с жалобами обращаться напрямую к пользователю. Файлы для обмена на трекере предоставлены пользователями сайта, и администрация не несёт ответственности за их содержание. Просьба не заливать файлы, защищенные авторскими правами, а также файлы нелегального содержания!

    [Профиль] [ЛС]
    Показать сообщения:    
    Ответить на тему

    Текущее время: Сегодня, в 14:40

    Часовой пояс: GMT + 2



    Вы не можете начинать темы
    Вы не можете отвечать на сообщения
    Вы не можете редактировать свои сообщения
    Вы не можете удалять свои сообщения
    Вы не можете голосовать в опросах
    Вы не можете прикреплять файлы к сообщениям
    Вы не можете скачивать файлы