BitTorrentTracker PerecTracker.org
BitTorrentTracker PerecTracker.org
    
Регистрация  ·  Вход
 
 · 
Забыли пароль?

  • Иммигрантка / Роковая страсть / The Immigrant (Джеймс Грэй / James Gray) [2013, США, Драма, Мелодрама, HDRip] MVO (BaibaKo)

    Ответить на тему
     
    Автор Сообщение

    Columb

    Создавать темы 18-Апр-2014 13:46

           

    [Цитировать]

    Иммигрантка / Роковая страсть / The Immigrant
    Страна: США
    Жанр: Драма, Мелодрама
    Год выпуска: 2013
    Продолжительность: 01:57:19
    Перевод: Любительский (многоголосый закадровый) BaibaKo
    Cубтитры: нет
    Режиссер: Джеймс Грэй / James Gray
    В ролях: Марион Котийяр, Хоакин Феникс, Джереми Реннер, Гленн Флешлер, Анджела Сарафян, Дагмара Доминчик, Гэбриел Раш, ДиДи Люкс, Илья Волох, Энтони Короне
    Описание: 1921 г. Эва с сестрой Магдой покидают родную Польшу в поисках Земли обетованной, которой им представляется Нью-Йорк. По прибытии Магду, заболевшую туберкулезом, помещают в карантин. Одинокая и растерянная Эва попадает в сети бесстыдного сутенера Бруно. Чтобы спасти сестру она готова на все жертвы и соглашается стать проституткой. Появление иллюзиониста Орландо, двоюродного брата Бруно, возвращает девушке уверенность и надежду на лучшие дни. Но она забыла о ревности Бруно…
    Доп. информация:
    Сэмпл: http://multi-up.com/967776
    Качество видео: HDRip
    Формат видео: AVI
    Видео: XVID, 720x304 (2,35:1), 23,976 кадра/сек, 1384 Кбит/сек
    Аудио: AC-3, 48,0 КГц, 384 Кбит/сек (6 каналов)

    MediaInfo

    Формат : AVI
    Формат/Информация : Audio Video Interleave
    Размер файла : 1,46 Гбайт
    Продолжительность : 1 ч. 57 м.
    Общий поток : 1777 Кбит/сек
    Программа кодирования : VirtualDubMod 1.5.10.2 (build 2540/release)
    Библиотека кодирования : VirtualDubMod build 2540/release
    Видео
    Идентификатор : 0
    Формат : MPEG-4 Visual
    Профиль формата : Advanced Simple@L5
    Параметр BVOP формата : 2
    Параметр QPel формата : Нет
    Параметр GMC формата : Без точки перехода
    Параметр матрицы формата : Выборочная
    Идентификатор кодека : XVID
    Идентификатор кодека/Подсказка : XviD
    Продолжительность : 1 ч. 57 м.
    Битрейт : 1384 Кбит/сек
    Ширина : 720 пикселей
    Высота : 304 пикселя
    Соотношение сторон : 2,35:1
    Частота кадров : 23,976 кадра/сек
    Цветовое пространство : YUV
    Субдискретизация насыщенности : 4:2:0
    Битовая глубина : 8 бит
    Тип развёртки : Прогрессивная
    Метод сжатия : С потерями
    Бит/(Пиксели*Кадры) : 0.264
    Размер потока : 1,13 Гбайт (78%)
    Библиотека кодирования : XviD 1.2.1 (UTC 2008-12-04)
    Аудио
    Идентификатор : 1
    Формат : AC-3
    Формат/Информация : Audio Coding 3
    Расширение режима : CM (complete main)
    Параметр Endianness формата : Big
    Идентификатор кодека : 2000
    Продолжительность : 1 ч. 57 м.
    Вид битрейта : Постоянный
    Битрейт : 384 Кбит/сек
    Каналы : 6 каналов
    Расположение каналов : Front: L C R, Side: L R, LFE
    Частота : 48,0 КГц
    Битовая глубина : 16 бит
    Метод сжатия : С потерями
    Размер потока : 322 Мбайт (22%)
    Выравнивание : Разделение по промежуткам
    Продолжительность промежутка : 42 мс. (1,00 видеокадр)
    Время предзагрузки промежутка : 500 мс.

    Скриншот c названием фильма

    Скриншоты

    Скачать .torrent

    Скачать торрент-файл бесплатно и на максимальной скорости!

    Как скачивать? · Что такое торрент? · Рейтинг и ограничения

    !ВНИМАНИЕ!
    Сайт не распространяет и не хранит электронные версии произведений, а занимается лишь лишь предоставлением доступа к создаваемому пользователями каталогу ссылок на торрент-файлы, которые содержат только списки хеш-сумм, убедительная просьба с жалобами обращаться напрямую к пользователю. Файлы для обмена на трекере предоставлены пользователями сайта, и администрация не несёт ответственности за их содержание. Просьба не заливать файлы, защищенные авторскими правами, а также файлы нелегального содержания!

    [Профиль] [ЛС]
    Показать сообщения:    
    Ответить на тему

    Текущее время: Сегодня, в 20:22

    Часовой пояс: GMT + 2



    Вы не можете начинать темы
    Вы не можете отвечать на сообщения
    Вы не можете редактировать свои сообщения
    Вы не можете удалять свои сообщения
    Вы не можете голосовать в опросах
    Вы не можете прикреплять файлы к сообщениям
    Вы не можете скачивать файлы