BitTorrentTracker PerecTracker.org
BitTorrentTracker PerecTracker.org
    
Регистрация  ·  Вход
 
 · 
Забыли пароль?

  • Президент Линкольн: Охотник на вампиров / Abraham Lincoln: Vampire Hunter (Тимур Бекмамбетов / Timur Bekmambetov) [2012, США, ужасы, фэнтези, боевик, триллер, HDRip] Dub

    Ответить на тему
     
    Автор Сообщение

    Columb

    Создавать темы 18-Апр-2014 13:43

           

    [Цитировать]

    Президент Линкольн: Охотник на вампиров / Abraham Lincoln: Vampire Hunter-Страна: США
    Жанр: ужасы, фэнтези, боевик, триллер
    Год выпуска: 2012
    Продолжительность: 01:45:00
    Перевод: Профессиональный (дублированный)
    Cубтитры: нет-Режиссер: Тимур Бекмамбетов / Timur Bekmambetov
    В ролях: Бенджамин Уокер (Abraham Lincoln), Доминик Купер (Henry Sturges), Энтони Маки (Will Johnson), Мэри Элизабет Уинстэд (Mary Todd Lincoln), Руфус Сьюэлл (Adam), Мартон Чокаш (Jack Barts), Джимми Симпсон (Joshua Speed), Джозеф Моул (Thomas Lincoln), Робин МакЛиви (Nancy Lincoln), Эрин Уоссон (Vadoma).
    Описание: Самый известный президент Соединенных Штатов Америки, оказывается был не только борцом за демократию и справедливость, но и вел еще одну, вторую жизнь. Днем он был великолепным руководителем, любящим отцом семейства и верным мужем. А ночью превращался в очень опасного и удачливого охотника на вампиров. Огромная армия кровопийц угрожает безопасности всего человечества, а силы им противоборствующие слишком малы. Великий президент великой страны становится последней преградой на пути полчища кровопийц к мировому господству, если он не сможет их остановить, то весь мир превратится в колонию вампиров, а люди останутся лишь как источники свежей крови.-Качество видео: HDRip (источник: BDRip / 720p)
    Формат видео: AVI | Sample
    Видео: 688x288 (2.40:1), 23.976 fps, XviD build 73 ~858 kbps avg, 0.18 bit/pixel
    Аудио: 48 kHz, MPEG Layer 3, 2 ch, ~128.00 kbps avg

    Скриншоты

    Медиаинфо

    Общее
    Формат : AVI
    Формат/Информация : Audio Video Interleave
    Размер файла : 747 Мбайт
    Продолжительность : 1 ч. 45 м.
    Общий поток : 995 Кбит/сек
    Программа кодирования : VirtualDubModRus 1.5.10.2 (build 2542/release)
    Библиотека кодирования : VirtualDubMod build 2542/release
    Видео
    Идентификатор : 0
    Формат : MPEG-4 Visual
    Профиль формата : Advanced Simple@L5
    Параметр BVOP формата : 1
    Параметр QPel формата : Нет
    Параметр GMC формата : Без точки перехода
    Параметр матрицы формата : Выборочная
    Идентификатор кодека : XVID
    Идентификатор кодека/Подсказка : XviD
    Продолжительность : 1 ч. 45 м.
    Битрейт : 858 Кбит/сек
    Ширина : 688 пикселей
    Высота : 288 пикселей
    Соотношение сторон : 2,40:1
    Частота кадров : 23,976 кадра/сек
    Цветовое пространство : YUV
    Субдискретизация насыщенности : 4:2:0
    Битовая глубина : 8 бит
    Тип развёртки : Прогрессивная
    Метод сжатия : С потерями
    Бит/(Пиксели*Кадры) : 0.181
    Размер потока : 644 Мбайт (86%)
    Библиотека кодирования : XviD 73
    Аудио
    Идентификатор : 1
    Формат : MPEG Audio
    Версия формата : Version 1
    Профиль формата : Layer 3
    Идентификатор кодека : 55
    Идентификатор кодека/Подсказка : MP3
    Продолжительность : 1 ч. 45 м.
    Вид битрейта : Постоянный
    Битрейт : 128 Кбит/сек
    Каналы : 2 канала
    Частота : 48,0 КГц
    Метод сжатия : С потерями
    Размер потока : 96,1 Мбайт (13%)
    Выравнивание : Соединение по промежуткам
    Продолжительность промежутка : 42 мс. (1,00 видеокадр)
    Время предзагрузки промежутка : 504 мс.
    Библиотека кодирования : LAME3.97
    Настройки программы : -m s -V 4 -q 2 -lowpass 17 -b 128
    Скачать .torrent

    Скачать торрент-файл бесплатно и на максимальной скорости!

    Как скачивать? · Что такое торрент? · Рейтинг и ограничения

    !ВНИМАНИЕ!
    Сайт не распространяет и не хранит электронные версии произведений, а занимается лишь лишь предоставлением доступа к создаваемому пользователями каталогу ссылок на торрент-файлы, которые содержат только списки хеш-сумм, убедительная просьба с жалобами обращаться напрямую к пользователю. Файлы для обмена на трекере предоставлены пользователями сайта, и администрация не несёт ответственности за их содержание. Просьба не заливать файлы, защищенные авторскими правами, а также файлы нелегального содержания!

    [Профиль] [ЛС]
    Показать сообщения:    
    Ответить на тему

    Текущее время: Сегодня, в 02:51

    Часовой пояс: GMT + 2



    Вы не можете начинать темы
    Вы не можете отвечать на сообщения
    Вы не можете редактировать свои сообщения
    Вы не можете удалять свои сообщения
    Вы не можете голосовать в опросах
    Вы не можете прикреплять файлы к сообщениям
    Вы не можете скачивать файлы