BitTorrentTracker PerecTracker.org
BitTorrentTracker PerecTracker.org
    
Регистрация  ·  Вход
 
 · 
Забыли пароль?

  • Элитное общество / The Bling Ring (София Коппола / Sofia Coppola) [2013, драма, криминал, BDRip-AVC] DUB + ENG + Sub (eng)

    Ответить на тему
     
    Автор Сообщение

    Columb

    Создавать темы 17-Апр-2014 17:15

           

    [Цитировать]

    Элитное общество / The Bling Ring
    «Где украсть красивую жизнь?»

    -Страна: США, Великобритания, Франция, Германия, Япония
    Жанр: драма, криминал
    Год выпуска: 2013
    Продолжительность: 01:30:33-Перевод: Профессиональный (полное дублирование), R5
    Cубтитры: English, English (SDH)-Режиссер: София Коппола
    В ролях: Израэль Бруссар, Кэти Чанг, Эмма Уотсон, Таисса Фармига, Клер Элис Жюльен, Гэвин Россдэйл, Джорджия Рок, Лесли Манн, Карлос Миранда, Стэйси Эдвардс
    Описание: В поисках адреналина и приключений пятеро отчаянных подростков ради прикола стали навещать богатые особняки в окрестностях Голливуда. Наведываясь в гости к Линдси Лохан, Орландо Блуму, Пэрис Хилтон и другим голливудским звездам, девушки, конечно, больше интересовались дизайнерской одеждой и драгоценностями, а юноши - просто деньгами. Совершив десять краж со взломом, ребятки награбили больше трех миллионов долларов...-Качество видео: BDRip-AVC [BD-Remux / HDClub]
    Формат видео: MKV-Видео: 1146x616 (1.85:1), 23,976 кадр/сек, 2609 Кбит/сек, 0.154 bit/pixel
    Аудио 1: 48 kHz, AC3, 3/2 (L,C,R,l,r) + LFE ch, ~384.00 kbps | DUB
    Аудио 2: 48 kHz, AC3, 3/2 (L,C,R,l,r) + LFE ch, ~448.00 kbps | ENG
    Формат субтитров: SoftSub (SRT)
    -- --

    Знаете ли вы, что...

    • Перед съемками команда актеров по распоряжению Софии Копполы проделала фальсифицированную кражу со взломом, чтобы режиссер могла понаблюдать за тем, какие ошибки они делают.
    • Во время съемок у Эммы Уотсон украли бумажник.
    • Последний фильм оператора Харриса Савидиса, он скончался в октябре 2012 года, через шесть месяцев после окончания основных съемок. Когда он заболел в процессе съемок, в проект был приглашен Крис Бловелт, чтобы закончить фильм.
    • Первый фильм с участием Эммы Уотсон, который снят не по книге.
    • Фильм снят по статье Нэнси Джо Сэйлс в журнале «Vanity Fair» под названием «Подозреваемые носили Лубутена»(The Suspects Wore Louboutins).
    • Эмма Уотсон сказала, что в процессе подготовки к своей роли она просмотрела «тонну реалити-шоу», в том числе «Голливудские холмы» (2006-2010) и «Семейство Кардашьян» (2007). Кроме того она слушала альбом Бритни Спирс «Femme Fatale», чтобы лучше проникнуться настроением ее персонажа.
    • Сцена, которая происходит в доме Пэрис Хилтон, была на самом деле снята именно там.
    • София Коппола обедала несколько раз с реальным осужденным грабителем Ником Франком Пруго, который был взят за основу для персонажа Марка. Пруго и его банда выкрали из домов знаменитостей вещей на сумму более $ 3 миллионов.

    MediaInfo & log x264

    log

    x264 [info]: using SAR=1/1
    x264 [info]: using cpu capabilities: MMX2 SSE2Fast LZCNT
    x264 [info]: profile High, level 4.1
    x264 [info]: frame I:729 Avg QP:15.18 size:100957
    x264 [info]: frame P:27921 Avg QP:19.31 size: 28782
    x264 [info]: frame B:101623 Avg QP:22.05 size: 8754
    x264 [info]: consecutive B-frames: 1.9% 2.4% 9.4% 18.6% 16.3% 36.4% 7.9% 1.3% 1.3% 0.8% 0.4% 1.8% 0.3% 0.4% 0.9%
    x264 [info]: mb I I16..4: 13.8% 64.8% 21.4%
    x264 [info]: mb P I16..4: 0.7% 7.2% 1.0% P16..4: 32.0% 33.2% 11.7% 1.4% 0.2% skip:12.6%
    x264 [info]: mb B I16..4: 0.1% 0.9% 0.1% B16..8: 32.9% 14.8% 2.4% direct: 3.6% skip:45.3% L0:45.9% L1:45.3% BI: 8.7%
    x264 [info]: 8x8 transform intra:78.7% inter:65.5%
    x264 [info]: direct mvs spatial:97.4% temporal:2.6%
    x264 [info]: coded y,uvDC,uvAC intra: 82.9% 79.9% 55.5% inter: 19.2% 17.6% 4.8%
    x264 [info]: i16 v,h,dc,p: 34% 11% 6% 48%
    x264 [info]: i8 v,h,dc,ddl,ddr,vr,hd,vl,hu: 12% 6% 6% 10% 14% 15% 13% 13% 11%
    x264 [info]: i4 v,h,dc,ddl,ddr,vr,hd,vl,hu: 15% 8% 7% 8% 14% 14% 12% 11% 10%
    x264 [info]: i8c dc,h,v,p: 38% 22% 20% 21%
    x264 [info]: Weighted P-Frames: Y:2.8% UV:1.2%
    x264 [info]: ref P L0: 42.7% 9.6% 17.5% 6.8% 5.8% 4.5% 4.2% 2.3% 2.3% 2.0% 2.1% 0.3% 0.0%
    x264 [info]: ref B L0: 66.3% 12.3% 7.2% 3.8% 3.0% 2.6% 2.2% 1.5% 0.8% 0.4%
    x264 [info]: ref B L1: 91.5% 8.5%
    x264 [info]: kb/s:2601.35
    General
    Unique ID                                : 211686664731574954256180682187969548619 (0x9F415E5F69F39204A39701D0996A514B)
    Complete name                            : D:\ФИЛЬМЫ\The.Bling.Ring.(2013).BDRip-AVC.andre90.mkv
    Format                                   : Matroska
    Format version                           : Version 4 / Version 2
    File size                                : 2.17 GiB
    Duration                                 : 1h 30mn
    Overall bit rate                         : 3 436 Kbps
    Movie name                               : Элитное общество / The Bling Ring (2013) BDRip-AVC by andre90
    Encoded date                             : UTC 2014-04-17 06:20:58
    Writing application                      : mkvmerge v6.1.0 ('Old Devil') built on Mar  2 2013 14:32:37
    Writing library                          : libebml v1.3.0 + libmatroska v1.4.0
    Attachment                               : Yes
    Video
    ID                                       : 1
    Format                                   : AVC
    Format/Info                              : Advanced Video Codec
    Format profile                           : High@L4.1
    Format settings, CABAC                   : Yes
    Format settings, ReFrames                : 11 frames
    Codec ID                                 : V_MPEG4/ISO/AVC
    Duration                                 : 1h 30mn
    Bit rate                                 : 2 609 Kbps
    Width                                    : 1 146 pixels
    Height                                   : 616 pixels
    Display aspect ratio                     : 1.85:1
    Frame rate mode                          : Constant
    Frame rate                               : 23.976 fps
    Color space                              : YUV
    Chroma subsampling                       : 4:2:0
    Bit depth                                : 8 bits
    Scan type                                : Progressive
    Bits/(Pixel*Frame)                       : 0.154
    Stream size                              : 1.60 GiB (74%)
    Writing library                          : x264 core 138 r2358 9e941d1
    Encoding settings                        : cabac=1 / ref=11 / deblock=1:-2:-2 / analyse=0x3:0x133 / me=umh / subme=11 / psy=1 / psy_rd=1.00:0.00 / mixed_ref=1 / me_range=48 / chroma_me=1 / trellis=2 / 8x8dct=1 / cqm=0 / deadzone=21,11 / fast_pskip=0 / chroma_qp_offset=-2 / threads=3 / lookahead_threads=1 / sliced_threads=0 / nr=0 / decimate=1 / interlaced=0 / bluray_compat=0 / constrained_intra=0 / bframes=14 / b_pyramid=2 / b_adapt=2 / b_bias=0 / direct=3 / weightb=1 / open_gop=0 / weightp=2 / keyint=240 / keyint_min=23 / scenecut=40 / intra_refresh=0 / rc_lookahead=40 / rc=2pass / mbtree=1 / bitrate=2609 / ratetol=1.0 / qcomp=0.60 / qpmin=0 / qpmax=69 / qpstep=4 / cplxblur=20.0 / qblur=0.5 / vbv_maxrate=50000 / vbv_bufsize=62500 / nal_hrd=none / ip_ratio=1.40 / aq=1:1.00
    Language                                 : English
    Default                                  : Yes
    Forced                                   : No
    Audio #1
    ID                                       : 2
    Format                                   : AC-3
    Format/Info                              : Audio Coding 3
    Mode extension                           : CM (complete main)
    Format settings, Endianness              : Big
    Codec ID                                 : A_AC3
    Duration                                 : 1h 30mn
    Bit rate mode                            : Constant
    Bit rate                                 : 384 Kbps
    Channel count                            : 6 channels
    Channel positions                        : Front: L C R, Side: L R, LFE
    Sampling rate                            : 48.0 KHz
    Bit depth                                : 16 bits
    Compression mode                         : Lossy
    Stream size                              : 249 MiB (11%)
    Title                                    : Dub
    Language                                 : Russian
    Default                                  : Yes
    Forced                                   : No
    Audio #2
    ID                                       : 3
    Format                                   : AC-3
    Format/Info                              : Audio Coding 3
    Mode extension                           : CM (complete main)
    Format settings, Endianness              : Big
    Codec ID                                 : A_AC3
    Duration                                 : 1h 30mn
    Bit rate mode                            : Constant
    Bit rate                                 : 448 Kbps
    Channel count                            : 6 channels
    Channel positions                        : Front: L C R, Side: L R, LFE
    Sampling rate                            : 48.0 KHz
    Bit depth                                : 16 bits
    Compression mode                         : Lossy
    Stream size                              : 290 MiB (13%)
    Language                                 : English
    Default                                  : No
    Forced                                   : No
    Text #1
    ID                                       : 4
    Format                                   : UTF-8
    Codec ID                                 : S_TEXT/UTF8
    Codec ID/Info                            : UTF-8 Plain Text
    Language                                 : English
    Default                                  : No
    Forced                                   : No
    Text #2
    ID                                       : 5
    Format                                   : UTF-8
    Codec ID                                 : S_TEXT/UTF8
    Codec ID/Info                            : UTF-8 Plain Text
    Title                                    : SDH
    Language                                 : English
    Default                                  : No
    Forced                                   : No
    Menu
    00:00:00.000                             : en:Chapter 0
    00:04:29.060                             : en:Chapter 0
    00:09:05.044                             : en:Chapter 0
    00:15:32.473                             : en:Chapter 0
    00:20:00.365                             : en:Chapter 0
    00:25:54.052                             : en:Chapter 0
    00:31:11.661                             : en:Chapter 0
    00:35:03.768                             : en:Chapter 0
    00:39:31.702                             : en:Chapter 0
    00:46:27.117                             : en:Chapter 0
    00:50:11.007                             : en:Chapter 0
    00:55:13.101                             : en:Chapter 0
    00:59:34.404                             : en:Chapter 0
    01:05:37.642                             : en:Chapter 0
    01:10:14.542                             : en:Chapter 0
    01:14:26.962                             : en:Chapter 0
    01:30:33.219                             : en:Chapter 0

    Скриншоты




    Скачать .torrent

    Скачать торрент-файл бесплатно и на максимальной скорости!

    Как скачивать? · Что такое торрент? · Рейтинг и ограничения

    !ВНИМАНИЕ!
    Сайт не распространяет и не хранит электронные версии произведений, а занимается лишь лишь предоставлением доступа к создаваемому пользователями каталогу ссылок на торрент-файлы, которые содержат только списки хеш-сумм, убедительная просьба с жалобами обращаться напрямую к пользователю. Файлы для обмена на трекере предоставлены пользователями сайта, и администрация не несёт ответственности за их содержание. Просьба не заливать файлы, защищенные авторскими правами, а также файлы нелегального содержания!

    [Профиль] [ЛС]
    Показать сообщения:    
    Ответить на тему

    Текущее время: Сегодня, в 01:16

    Часовой пояс: GMT + 2



    Вы не можете начинать темы
    Вы не можете отвечать на сообщения
    Вы не можете редактировать свои сообщения
    Вы не можете удалять свои сообщения
    Вы не можете голосовать в опросах
    Вы не можете прикреплять файлы к сообщениям
    Вы не можете скачивать файлы