BitTorrentTracker PerecTracker.org
BitTorrentTracker PerecTracker.org
    
Регистрация  ·  Вход
 
 · 
Забыли пароль?

  • Никто мне не хозяин / Никто мной не владеет / Mig äger ingen (Челл-Оке Андерссон / Kjell-Åke Andersson) [2013, Швеция, Драма, экранизация, HDRip] VO (Pashaup)

    Ответить на тему
     
    Автор Сообщение

    Columb

    Создавать темы 17-Апр-2014 08:41

           

    [Цитировать]

    Никто мне не хозяин / Никто мной не владеет / Mig äger ingen
    Страна: Швеция
    Жанр: Драма, экранизация
    Год выпуска: 2013
    Продолжительность: 01:44:37
    Перевод: Одноголосый закадровый Pashaup
    Cубтитры: нет
    Оригинальная аудиодорожка: нет
    Режиссер: Челл-Оке Андерссон / Kjell-Åke Andersson
    В ролях: Микаэль Персбрандт, Сага Самуэльссон, Стен Льюнгрен, Пинг Мон Х. Валлен, Ида Энгволль, Таня Лорентсон, Сандра Андрейс, Клара Кристианссон, Петер Карлберг
    Описание: После разрыва между родителями Лиза (Ида Энгволль) остается жить с отцом (Микаэль Персбрандт). Несмотря на увлечение его алкоголем, отношения между отцом и дочерью с каждым днем становятся крепче. Они всегда вместе, словно лучшие друзья, и убеждены, что все люди равны. Повзрослев, Лиза остается верна отцу, но стыдится его. Когда отец все чаще утешается в бутылке, погружаясь в глубокие запои, Лизе приходится делать выбор — уйти или смириться. «Никто мной не владеет» — это провозглашение беззаветной и искренней любви дочери к отцу, а также история о борьбе за правду.
    Доп. информация:


    Сэмпл: http://multi-up.com/967353
    Качество видео: HDRip
    Формат видео: AVI
    Видео: XviD, 1536 Кбит/с, 720x304 25,000 кадров/сек
    Аудио: AC3, 6 ch, 448 Кбит/с

    MediaInfo

    Общее
    Полное имя : C:\Documents and Settings\Admin\Рабочий стол\Nikto.mne.ne.hozjain.2013.HDRip.avi
    Формат : AVI
    Формат/Информация : Audio Video Interleave
    Размер файла : 1,46 Гбайт
    Продолжительность : 1 ч. 44 м.
    Общий поток : 1993 Кбит/сек
    Программа кодирования : VirtualDubMod 1.5.10.3 | www.virtualdub-fr.org || (build 2550/release)
    Библиотека кодирования : VirtualDubMod build 2550/release
    Видео
    Идентификатор : 0
    Формат : MPEG-4 Visual
    Профиль формата : Advanced Simple@L5
    Параметр BVOP формата : 1
    Параметр QPel формата : Нет
    Параметр GMC формата : Без точки перехода
    Параметр матрицы формата : Выборочная
    Идентификатор кодека : XVID
    Идентификатор кодека/Подсказка : XviD
    Продолжительность : 1 ч. 44 м.
    Битрейт : 1536 Кбит/сек
    Ширина : 720 пикселей
    Высота : 304 пикселя
    Соотношение сторон : 2,35:1
    Частота кадров : 25,000 кадров/сек
    Цветовое пространство : YUV
    Субдискретизация насыщенности : 4:2:0
    Битовая глубина : 8 бит
    Тип развёртки : Прогрессивная
    Метод сжатия : С потерями
    Бит/(Пиксели*Кадры) : 0.281
    Размер потока : 1,12 Гбайт (77%)
    Библиотека кодирования : XviD 1.2.1 (UTC 2008-12-04)
    Аудио
    Идентификатор : 1
    Формат : AC-3
    Формат/Информация : Audio Coding 3
    Расширение режима : CM (complete main)
    Параметр Endianness формата : Big
    Идентификатор кодека : 2000
    Продолжительность : 1 ч. 44 м.
    Вид битрейта : Постоянный
    Битрейт : 448 Кбит/сек
    Каналы : 6 каналов
    Расположение каналов : Front: L C R, Side: L R, LFE
    Частота : 48,0 КГц
    Битовая глубина : 16 бит
    Метод сжатия : С потерями
    Размер потока : 335 Мбайт (22%)
    Выравнивание : Разделение по промежуткам
    Продолжительность промежутка : 40 мс. (1,00 видеокадр)
    Время предзагрузки промежутка : 500 мс.

    Скриншоты

    Скачать .torrent

    Скачать торрент-файл бесплатно и на максимальной скорости!

    Как скачивать? · Что такое торрент? · Рейтинг и ограничения

    !ВНИМАНИЕ!
    Сайт не распространяет и не хранит электронные версии произведений, а занимается лишь лишь предоставлением доступа к создаваемому пользователями каталогу ссылок на торрент-файлы, которые содержат только списки хеш-сумм, убедительная просьба с жалобами обращаться напрямую к пользователю. Файлы для обмена на трекере предоставлены пользователями сайта, и администрация не несёт ответственности за их содержание. Просьба не заливать файлы, защищенные авторскими правами, а также файлы нелегального содержания!

    [Профиль] [ЛС]
    Показать сообщения:    
    Ответить на тему

    Текущее время: Сегодня, в 18:26

    Часовой пояс: GMT + 2



    Вы не можете начинать темы
    Вы не можете отвечать на сообщения
    Вы не можете редактировать свои сообщения
    Вы не можете удалять свои сообщения
    Вы не можете голосовать в опросах
    Вы не можете прикреплять файлы к сообщениям
    Вы не можете скачивать файлы