BitTorrentTracker PerecTracker.org
BitTorrentTracker PerecTracker.org
    
Регистрация  ·  Вход
 
 · 
Забыли пароль?

  • Война пуговиц / La guerre des boutons (Ян Самюэль / Yann Samuell) [2011, Франция, семейный, приключения, комедия, HDRip] MVO (СТС)

    Ответить на тему
     
    Автор Сообщение

    Columb

    Создавать темы 17-Апр-2014 08:40

           

    [Цитировать]

    Война пуговиц / La guerre des boutons
    Страна: Франция
    Жанр: семейный, приключения, комедия
    Год выпуска: 2011
    Продолжительность: 01:49:14
    Перевод: Профессиональный (многоголосый закадровый) СТС
    Cубтитры: нет
    Оригинальная аудиодорожка: нет
    Режиссер: Ян Самюэль / Yann Samuell
    В ролях: Эрик Эльмоснино, Матильда Сейньер, Фред Тесто, Ален Шабат, Венсан Бре, Салом Лемер, Тео Бертран, Тристан Вишар, Том Террельм, Луи Лефевр, Виктор Ле Блонд, Артур Гарнье
    Описание: Юг Франции, 1957 год. Компания мальчишек во главе с бесстрашным Лебраком всегда готова бросить вызов своим заклятым врагам - мальчишкам из соседней деревни. Ведь в извечном противостоянии детворы соседних деревень уже на протяжении нескольких поколений победитель так и не определен. Но ради победы ребята готовы на всё: сражаться в необычном виде, чтобы смутить и обратить соперников в бегство, и даже пригласить в свой стан для подмоги отчаянную девчонку. Ведь благодаря её нраву и изобретательности может быть наконец-то удастся одержать вверх над соперником.
    Доп. информация: Есть небольшая вставка с озвучкой В. Прошина на вырезанный на СТС кусок.
    Сэмпл: http://multi-up.com/967434
    Качество видео: HDRip
    Формат видео: AVI
    Видео: MPEG4, XviD, 720x384 (1.875), 23.976 fps, 1 703 Kbps (0.257 bit/pixel)
    Аудио: AC-3, 48.0 KHz, 2 ch, 192 Kbps, CBR

    MediaInfo

    Общее
    Полное имя : K:\Война пуговиц.avi
    Формат : AVI
    Формат/Информация : Audio Video Interleave
    Размер файла : 1,45 Гбайт
    Продолжительность : 1 ч. 49 м.
    Общий поток : 1905 Кбит/сек
    Название фильма : Война пуговиц / La guerre des boutons (2011)
    Режиссёр : miha2154
    Программа кодирования : VirtualDubMod 1.5.10.2 (build 2540/release)
    Библиотека кодирования : VirtualDubMod build 2540/release
    Правообладатель : специально для BitTorrent трекер RuTracker.org (ex torrents.ru)
    Видео
    Идентификатор : 0
    Формат : MPEG-4 Visual
    Профиль формата : Advanced Simple@L5
    Параметр BVOP формата : 2
    Параметр QPel формата : Нет
    Параметр GMC формата : Без точки перехода
    Параметр матрицы формата : Default (MPEG)
    Идентификатор кодека : XVID
    Идентификатор кодека/Подсказка : XviD
    Продолжительность : 1 ч. 49 м.
    Битрейт : 1703 Кбит/сек
    Ширина : 720 пикселей
    Высота : 384 пикселя
    Соотношение сторон : 1,85:1
    Частота кадров : 23,976 кадра/сек
    Цветовое пространство : YUV
    Субдискретизация насыщенности : 4:2:0
    Битовая глубина : 8 бит
    Тип развёртки : Прогрессивная
    Метод сжатия : С потерями
    Бит/(Пиксели*Кадры) : 0.257
    Размер потока : 1,30 Гбайт (89%)
    Библиотека кодирования : XviD 1.1.0 (UTC 2005-11-22)
    Аудио
    Идентификатор : 1
    Формат : AC-3
    Формат/Информация : Audio Coding 3
    Расширение режима : CM (complete main)
    Параметр Endianness формата : Big
    Идентификатор кодека : 2000
    Продолжительность : 1 ч. 49 м.
    Вид битрейта : Постоянный
    Битрейт : 192 Кбит/сек
    Каналы : 2 канала
    Расположение каналов : Front: L R
    Частота : 48,0 КГц
    Битовая глубина : 16 бит
    Метод сжатия : С потерями
    Размер потока : 150 Мбайт (10%)
    Выравнивание : Разделение по промежуткам
    Продолжительность промежутка : 42 мс. (1,00 видеокадр)
    Время предзагрузки промежутка : 500 мс.
    Заголовок : Профессиональный (многоголосый закадровый) СТС

    Скриншот c названием фильма

    Скриншоты


    Скачать .torrent

    Скачать торрент-файл бесплатно и на максимальной скорости!

    Как скачивать? · Что такое торрент? · Рейтинг и ограничения

    !ВНИМАНИЕ!
    Сайт не распространяет и не хранит электронные версии произведений, а занимается лишь лишь предоставлением доступа к создаваемому пользователями каталогу ссылок на торрент-файлы, которые содержат только списки хеш-сумм, убедительная просьба с жалобами обращаться напрямую к пользователю. Файлы для обмена на трекере предоставлены пользователями сайта, и администрация не несёт ответственности за их содержание. Просьба не заливать файлы, защищенные авторскими правами, а также файлы нелегального содержания!

    [Профиль] [ЛС]
    Показать сообщения:    
    Ответить на тему

    Текущее время: Сегодня, в 08:59

    Часовой пояс: GMT + 2



    Вы не можете начинать темы
    Вы не можете отвечать на сообщения
    Вы не можете редактировать свои сообщения
    Вы не можете удалять свои сообщения
    Вы не можете голосовать в опросах
    Вы не можете прикреплять файлы к сообщениям
    Вы не можете скачивать файлы