BitTorrentTracker PerecTracker.org
BitTorrentTracker PerecTracker.org
    
Регистрация  ·  Вход
 
 · 
Забыли пароль?

  • Филомена / Philomena (Стивен Фрирз / Stephen Frears) [2013, Великобритания, США, Франция, драма, комедия, BDRip-AVC] Dub + Original (Eng) + Subs (Rus, Eng)

    Ответить на тему
     
    Автор Сообщение

    Columb

    Создавать темы 16-Апр-2014 14:01

           

    [Цитировать]

    Филомена / Philomena«These two unlikely companions are on a journey to find her long lost son»-Страна: Великобритания, США, Франция
    Жанр: драма, комедия
    Год выпуска: 2013
    Продолжительность: 01:37:44-Перевод: Профессиональный (дублированный)
    Оригинальная аудиодорога: English
    Cубтитры: Russian (full), English (full+full SDH+full SDH-Colored) - (*.srt)
    Навигация по главам: Присутствует - (15 глав)-Режиссер: Стивен Фрирз / Stephen Frears
    В ролях: Джуди Денч, Стив Куган, Софи Кеннеди Кларк, Мэр Уиннингхэм, Барбара Джеффорд, Рут МакКейб, Питер Хэрман, Шон Махон, Анна Максвелл Мартин, Мишель Фэйрли-Описание
    Юная ирландка Филомена родила сына, будучи подростком, и её, как «падшую», отправили на «перевоспитание» в монастырь, а младенца отдали в усыновление в американскую семью. В монастыре Филомена подвергалась неисчислимым унижениям. Затем ей удалось вырваться оттуда, и она прожила достойную жизнь, но все эти годы пыталась безуспешно найти своего сына. Её историей заинтересовался отзывчивый человек Мартин Сиксмит — опытный журналист, занимающийся темой зловещей роли церкви в многочисленных сломанных судьбах…
    -
    Download sample-Качество видео: BDRip-AVC | исх. Blu-ray Disc (Custom) 1080p [GBR Transfer]
    Формат видео: MKV-Видео: 1 152x624 (1.85:1), 24.000 fps, x264 ~3464 kbps avg, 0.196 bit/pixel
    Аудио №1: 48 kHz, AC3, 3/2 (L,C,R,l,r) + LFE ch, ~448.00 kbps avg | Профессиональный (дублированный)
    Аудио №2: 48 kHz, AC3, 3/2 (L,C,R,l,r) + LFE ch, ~448.00 kbps avg | English-

    MediaInfo

    General
    Unique ID : 211282836354369262149622780179848133968 (0x9EF39818B4EC45579E68C94346F47D50)
    Complete name : D:\Фильмы\Рипы\Philomena 2013 BDRip-AVC.Fredd Kruger.mkv
    Format : Matroska
    Format version : Version 4 / Version 2
    File size : 2.98 GiB
    Duration : 1h 37mn
    Overall bit rate : 4 363 Kbps
    Movie name : Philomena (2013) - Release for rutracker by Fredd Kruger
    Encoded date : UTC 2014-04-16 09:38:59
    Writing application : mkvmerge v6.1.0 ('Old Devil') built on Mar 4 2013 09:10:42
    Writing library : libebml v1.3.0 + libmatroska v1.4.0
    Attachment : Yes
    Video
    ID : 1
    Format : AVC
    Format/Info : Advanced Video Codec
    Format profile : High@L4.1
    Format settings, CABAC : Yes
    Format settings, ReFrames : 15 frames
    Codec ID : V_MPEG4/ISO/AVC
    Duration : 1h 37mn
    Bit rate : 3 380 Kbps
    Width : 1 152 pixels
    Height : 624 pixels
    Display aspect ratio : 1.85:1
    Frame rate mode : Constant
    Frame rate : 24.000 fps
    Color space : YUV
    Chroma subsampling : 4:2:0
    Bit depth : 8 bits
    Scan type : Progressive
    Bits/(Pixel*Frame) : 0.196
    Stream size : 2.31 GiB (77%)
    Title : Encode Fredd Kruger
    Writing library : x264 core 142 r2409kMod d6b4e63
    Encoding settings : cabac=1 / ref=15 / deblock=1:-3:-3 / analyse=0x3:0x133 / me=umh / subme=11 / psy=1 / fade_compensate=0.00 / psy_rd=1.00:0.00 / mixed_ref=1 / me_range=64 / chroma_me=1 / trellis=2 / 8x8dct=1 / cqm=0 / deadzone=21,11 / fast_pskip=1 / chroma_qp_offset=-2 / threads=8 / lookahead_threads=2 / sliced_threads=0 / nr=0 / decimate=1 / interlaced=0 / bluray_compat=0 / constrained_intra=0 / fgo=0 / bframes=15 / b_pyramid=2 / b_adapt=2 / b_bias=0 / direct=3 / weightb=1 / open_gop=0 / weightp=2 / keyint=250 / keyint_min=23 / scenecut=40 / intra_refresh=0 / rc_lookahead=60 / rc=crf / mbtree=0 / crf=18.4000 / qcomp=0.70 / qpmin=0 / qpmax=69 / qpstep=4 / vbv_maxrate=50000 / vbv_bufsize=62500 / crf_max=0.0 / nal_hrd=none / filler=0 / ip_ratio=1.40 / pb_ratio=1.30 / aq=3:0.85
    Default : Yes
    Forced : No
    Audio #1
    ID : 2
    Format : AC-3
    Format/Info : Audio Coding 3
    Mode extension : CM (complete main)
    Format settings, Endianness : Big
    Codec ID : A_AC3
    Duration : 1h 37mn
    Bit rate mode : Constant
    Bit rate : 448 Kbps
    Channel count : 6 channels
    Channel positions : Front: L C R, Side: L R, LFE
    Sampling rate : 48.0 KHz
    Bit depth : 16 bits
    Compression mode : Lossy
    Stream size : 313 MiB (10%)
    Title : Dub
    Language : Russian
    Default : Yes
    Forced : No
    Audio #2
    ID : 3
    Format : AC-3
    Format/Info : Audio Coding 3
    Mode extension : CM (complete main)
    Format settings, Endianness : Big
    Codec ID : A_AC3
    Duration : 1h 37mn
    Bit rate mode : Constant
    Bit rate : 448 Kbps
    Channel count : 6 channels
    Channel positions : Front: L C R, Side: L R, LFE
    Sampling rate : 48.0 KHz
    Bit depth : 16 bits
    Compression mode : Lossy
    Stream size : 313 MiB (10%)
    Language : English
    Default : No
    Forced : No
    Text #1
    ID : 4
    Format : UTF-8
    Codec ID : S_TEXT/UTF8
    Codec ID/Info : UTF-8 Plain Text
    Title : full
    Language : Russian
    Default : No
    Forced : No
    Text #2
    ID : 5
    Format : UTF-8
    Codec ID : S_TEXT/UTF8
    Codec ID/Info : UTF-8 Plain Text
    Title : full
    Language : English
    Default : No
    Forced : No
    Text #3
    ID : 6
    Format : UTF-8
    Codec ID : S_TEXT/UTF8
    Codec ID/Info : UTF-8 Plain Text
    Title : full SDH
    Language : English
    Default : No
    Forced : No
    Text #4
    ID : 7
    Format : UTF-8
    Codec ID : S_TEXT/UTF8
    Codec ID/Info : UTF-8 Plain Text
    Title : full SDH-Colored
    Language : English
    Default : No
    Forced : No
    Menu
    00:03:31.125 : en:(01)00:03:31:125
    00:11:02.332 : en:(02)00:11:02:332
    00:21:31.500 : en:(03)00:21:31:500
    00:27:02.165 : en:(04)00:27:02:165
    00:32:30.665 : en:(05)00:32:30:665
    00:35:58.833 : en:(06)00:35:58:833
    00:43:30.875 : en:(07)00:43:30:875
    00:49:11.458 : en:(08)00:49:11:458
    00:56:54.458 : en:(09)00:56:54:458
    01:01:22.458 : en:(10)01:01:22:458
    01:05:04.833 : en:(11)01:05:04:833
    01:10:30.750 : en:(12)01:10:30:750
    01:16:36.875 : en:(13)01:16:36:875
    01:22:44.832 : en:(14)01:22:44:832
    01:32:59.041 : en:(15)01:32:59:041

    x264 log

    x264 [info]: frame I:1040 Avg QP:14.85 size: 88761 PSNR Mean Y:48.12 U:50.51 V:50.55 Avg:48.77 Global:48.20
    x264 [info]: frame P:26966 Avg QP:16.82 size: 34182 PSNR Mean Y:46.69 U:49.46 V:49.62 Avg:47.43 Global:46.72
    x264 [info]: frame B:112730 Avg QP:19.86 size: 13528 PSNR Mean Y:46.04 U:49.24 V:49.45 Avg:46.87 Global:45.97
    x264 [info]: consecutive B-frames: 1.4% 1.3% 4.4% 13.4% 18.1% 43.8% 8.0% 1.7% 2.1% 1.6% 1.1% 0.4% 1.0% 1.0% 0.3% 0.4%
    x264 [info]: mb I I16..4: 7.5% 77.6% 14.9%
    x264 [info]: mb P I16..4: 0.5% 10.0% 0.8% P16..4: 29.4% 34.8% 13.4% 1.9% 0.2% skip: 9.1%
    x264 [info]: mb B I16..4: 0.0% 2.9% 0.1% B16..8: 35.1% 18.8% 3.1% direct: 3.8% skip:36.4% L0:44.5% L1:46.2% BI: 9.2%
    x264 [info]: 8x8 transform intra:90.9% inter:61.3%
    x264 [info]: direct mvs spatial:100.0% temporal:0.0%
    x264 [info]: coded y,uvDC,uvAC intra: 95.6% 92.6% 81.9% inter: 18.9% 13.4% 3.0%
    x264 [info]: i16 v,h,dc,p: 25% 23% 5% 47%
    x264 [info]: i8 v,h,dc,ddl,ddr,vr,hd,vl,hu: 8% 8% 11% 10% 13% 13% 13% 12% 13%
    x264 [info]: i4 v,h,dc,ddl,ddr,vr,hd,vl,hu: 9% 11% 5% 10% 15% 13% 13% 11% 13%
    x264 [info]: i8c dc,h,v,p: 55% 15% 12% 18%
    x264 [info]: Weighted P-Frames: Y:5.3% UV:3.3%
    x264 [info]: ref P L0: 44.0% 8.1% 17.3% 6.6% 5.7% 3.9% 3.5% 1.8% 1.8% 1.4% 1.4% 1.1% 1.1% 1.0% 1.1% 0.1%
    x264 [info]: ref B L0: 66.6% 12.7% 6.5% 3.5% 2.6% 2.1% 1.5% 1.0% 0.9% 0.8% 0.6% 0.5% 0.3% 0.2%
    x264 [info]: ref B L1: 91.0% 9.0%
    x264 [info]: SSIM Mean Y:0.9828373 (17.654db)
    x264 [info]: PSNR Mean Y:46.184 U:49.287 V:49.492 Avg:46.989 Global:46.114 kb/s:3463.96
    x264 [total]: encoded 140736 frames, 6.84 fps, 3463.96 kb/s

    Screenshots

    Comparison

    Source

    Encode
    Скачать .torrent

    Скачать торрент-файл бесплатно и на максимальной скорости!

    Как скачивать? · Что такое торрент? · Рейтинг и ограничения

    !ВНИМАНИЕ!
    Сайт не распространяет и не хранит электронные версии произведений, а занимается лишь лишь предоставлением доступа к создаваемому пользователями каталогу ссылок на торрент-файлы, которые содержат только списки хеш-сумм, убедительная просьба с жалобами обращаться напрямую к пользователю. Файлы для обмена на трекере предоставлены пользователями сайта, и администрация не несёт ответственности за их содержание. Просьба не заливать файлы, защищенные авторскими правами, а также файлы нелегального содержания!

    [Профиль] [ЛС]
    Показать сообщения:    
    Ответить на тему

    Текущее время: Сегодня, в 20:24

    Часовой пояс: GMT + 2



    Вы не можете начинать темы
    Вы не можете отвечать на сообщения
    Вы не можете редактировать свои сообщения
    Вы не можете удалять свои сообщения
    Вы не можете голосовать в опросах
    Вы не можете прикреплять файлы к сообщениям
    Вы не можете скачивать файлы