BitTorrentTracker PerecTracker.org
BitTorrentTracker PerecTracker.org
    
Регистрация  ·  Вход
 
 · 
Забыли пароль?

  • Сладкий яд скорпиона / Bruna Surfistinha / Little Surfer Girl (Маркус Бальдини / Marcus Baldini) [2011, Бразилия, драма, HDRip] MVO (НТВ+)

    Ответить на тему
     
    Автор Сообщение

    Columb

    Создавать темы 16-Апр-2014 13:57

           

    [Цитировать]

    -Сладкий яд скорпиона / Bruna Surfistinha / Little Surfer Girl-
    Страна: Бразилия
    Жанр: драма, биография
    Год выпуска: 2011
    Продолжительность: 01:47:37
    Перевод: Профессиональный (многоголосый закадровый) [НТВ+]
    Cубтитры: нет
    Режиссер: Маркус Бальдини / Marcus Baldini
    В ролях: Дебора Секку, Кассио Габус Мендес, Дрика Мораэс, Fabiula Nascimento, Кристина Лаго, Гута Руис, Клариссе Абужамра, Luciano Chirolli, Sergio Guize, Симона Илиеску
    Описание: Девушка Ракель, живущая в семье среднего класса, в свои 17 лет протестует против такого образа жизни, и оставляет свою семью и обучение в традиционном колледже в Сан-Паулу, становясь девушкой по вызову. Поднабравшись "опыта", она создает свой блог в интернете и начинает описывать свои похождения. Блог за короткое время становится сверхпопулярным. Её приглашают на разные ток-шоу. Она становится мега известной и даже пишет книгу.
    Качество видео: HDRip
    Формат видео: AVI
    Видео: XviD, 1681 kb/s, 23,976fps, 720x384
    Аудио: MP3, 128 kb/s, 48,0 КГц, (2 ch)
    --

    MediaInfo

    Общее
    Полное имя : E:\Раздачи\Sladkij.yad.skorpiona.2011.P.HDRip.1400Mb.avi
    Формат : AVI
    Формат/Информация : Audio Video Interleave
    Размер файла : 1,37 Гбайт
    Продолжительность : 1 ч. 47 м.
    Общий поток : 1818 Кбит/сек
    Программа кодирования : VirtualDubMod 1.5.10.2 (build 2540/release)
    Библиотека кодирования : VirtualDubMod build 2540/release
    Видео
    Идентификатор : 0
    Формат : MPEG-4 Visual
    Профиль формата : Advanced Simple@L5
    Параметр BVOP формата : 2
    Параметр QPel формата : Нет
    Параметр GMC формата : Без точки перехода
    Параметр матрицы формата : Default (H.263)
    Идентификатор кодека : XVID
    Идентификатор кодека/Подсказка : XviD
    Продолжительность : 1 ч. 47 м.
    Битрейт : 1681 Кбит/сек
    Ширина : 720 пикселей
    Высота : 384 пикселя
    Соотношение сторон : 1,85:1
    Частота кадров : 23,976 кадра/сек
    Цветовое пространство : YUV
    Субдискретизация насыщенности : 4:2:0
    Битовая глубина : 8 бит
    Тип развёртки : Прогрессивная
    Метод сжатия : С потерями
    Бит/(Пиксели*Кадры) : 0.254
    Размер потока : 1,26 Гбайт (92%)
    Библиотека кодирования : XviD 1.2.1 (UTC 2008-12-04)
    Аудио
    Идентификатор : 1
    Формат : MPEG Audio
    Версия формата : Version 1
    Профиль формата : Layer 3
    Режим : Joint stereo
    Расширение режима : MS Stereo
    Идентификатор кодека : 55
    Идентификатор кодека/Подсказка : MP3
    Продолжительность : 1 ч. 47 м.
    Вид битрейта : Постоянный
    Битрейт : 128 Кбит/сек
    Каналы : 2 канала
    Частота : 48,0 КГц
    Метод сжатия : С потерями
    Размер потока : 98,5 Мбайт (7%)
    Выравнивание : Соединение по промежуткам
    Продолжительность промежутка : 42 мс. (1,00 видеокадр)
    Время предзагрузки промежутка : 504 мс.

    Скриншот c названием фильма

    Скриншоты


    --
    Скачать .torrent

    Скачать торрент-файл бесплатно и на максимальной скорости!

    Как скачивать? · Что такое торрент? · Рейтинг и ограничения

    !ВНИМАНИЕ!
    Сайт не распространяет и не хранит электронные версии произведений, а занимается лишь лишь предоставлением доступа к создаваемому пользователями каталогу ссылок на торрент-файлы, которые содержат только списки хеш-сумм, убедительная просьба с жалобами обращаться напрямую к пользователю. Файлы для обмена на трекере предоставлены пользователями сайта, и администрация не несёт ответственности за их содержание. Просьба не заливать файлы, защищенные авторскими правами, а также файлы нелегального содержания!

    [Профиль] [ЛС]
    Показать сообщения:    
    Ответить на тему

    Текущее время: Сегодня, в 20:02

    Часовой пояс: GMT + 2



    Вы не можете начинать темы
    Вы не можете отвечать на сообщения
    Вы не можете редактировать свои сообщения
    Вы не можете удалять свои сообщения
    Вы не можете голосовать в опросах
    Вы не можете прикреплять файлы к сообщениям
    Вы не можете скачивать файлы