Register  ·  Log in
Forgot password?

  • Плачущая 3 / La Llorona 3 / The Wailer 3 (Ксавье Барбера / Xavier Barbera) [2012, США, ужасы, DVDRip] VO (Хэм)

    Reply to topic
    Author Message


    Post 16-Apr-2014 14:56



    Плачущая 3 / La Llorona 3 / The Wailer 3
    Страна: США
    Жанр: ужасы
    Год выпуска: 2012
    Продолжительность: 1:29:45
    Перевод: Одноголосый закадровый (Хэм)
    Cубтитры: нет
    Режиссер: Ксавье Барбера / Xavier Barbera
    В ролях: Джош Делозье, Мария Паллас, Николь Симпсон, Крис Андерсон
    Описание: Дэниел с семьёй приехал погостить к тёще, тело которой через пару дней нашли в бассейне у дома. Согласно полицейскому рапорту это не было несчастным случаем — женщина была утоплена, погибнув точно так же, как и ранее её муж. Но череда бед, связанных с водой, на этом не закончилась: во время накрывшего город ливня жена Дэниела тоже утонула, дети пропали без вести, а он сам стал инвалидом.
    Доп. информация: / / рип от Ragedevil
    Качество видео: DVDRip
    Формат видео: AVI
    Видео: XVID, 720x400, 16:9, 23,976 fps, 1726 kbps
    Аудио: MP3, 48 kHz, 192 kbps, 2.0


    Complete name : D:\Movs\The.Wailer.3.2012.Rus.avi
    Format : AVI
    Format/Info : Audio Video Interleave
    File size : 1.21 GiB
    Duration : 1h 29mn
    Overall bit rate : 1 927 Kbps
    Writing library : VirtualDub build 32817/release
    ID : 0
    Format : MPEG-4 Visual
    Format profile : Advanced Simple@L5
    Format settings, BVOP : 2
    Format settings, QPel : Yes
    Format settings, GMC : No warppoints
    Format settings, Matrix : Default (H.263)
    Codec ID : XVID
    Codec ID/Hint : XviD
    Duration : 1h 29mn
    Bit rate : 1 726 Kbps
    Width : 720 pixels
    Height : 400 pixels
    Display aspect ratio : 16:9
    Frame rate : 23.976 fps
    Color space : YUV
    Chroma subsampling : 4:2:0
    Bit depth : 8 bits
    Scan type : Progressive
    Compression mode : Lossy
    Bits/(Pixel*Frame) : 0.250
    Stream size : 1.08 GiB (90%)
    Writing library : XviD 1.2.1 (UTC 2008-12-04)
    ID : 1
    Format : MPEG Audio
    Format version : Version 1
    Format profile : Layer 3
    Mode : Joint stereo
    Codec ID : 55
    Codec ID/Hint : MP3
    Duration : 1h 29mn
    Bit rate mode : Constant
    Bit rate : 192 Kbps
    Channel(s) : 2 channels
    Sampling rate : 48.0 KHz
    Compression mode : Lossy
    Stream size : 123 MiB (10%)
    Alignment : Split accross interleaves
    Interleave, duration : 42 ms (1.00 video frame)
    Interleave, preload duration : 500 ms

    Скриншот c названием фильма


    Download .torrent

    Download free and at maximum speed!

    How to Download? · What is a torrent? · Ratings and Limitations

    The site does not extend and does not store electronic(digital) versions of products, and only gives access to a reference catalogue created by users on torrent-files which contain only lists of the hash-sums, the earnest entreaty, with complaints(abuse) to access directly to the user. Files for an exchange on tracker are given by users of a site, and the administration does not bear the responsibility for their maintenance. The request to not fill in the files protected by copyrights, and also files of the illegal maintenance!

    [Profile] [PM]
    Display posts from previous:    
    Reply to topic

    The time now is: Today 23:37

    All times are GMT + 3 Hours

    You cannot post new topics in this forum
    You cannot reply to topics in this forum
    You cannot edit your posts in this forum
    You cannot delete your posts in this forum
    You cannot vote in polls in this forum
    You cannot attach files in this forum
    You cannot download files in this forum