BitTorrentTracker PerecTracker.org
BitTorrentTracker PerecTracker.org
    
Регистрация  ·  Вход
 
 · 
Забыли пароль?

  • Плачущая 3 / La Llorona 3 / The Wailer 3 (Ксавье Барбера / Xavier Barbera) [2012, США, ужасы, DVDRip] VO (Хэм)

    Ответить на тему
     
    Автор Сообщение

    Columb

    Создавать темы 16-Апр-2014 13:56

           

    [Цитировать]

    Плачущая 3 / La Llorona 3 / The Wailer 3
    Страна: США
    Жанр: ужасы
    Год выпуска: 2012
    Продолжительность: 1:29:45
    Перевод: Одноголосый закадровый (Хэм)
    Cубтитры: нет
    Режиссер: Ксавье Барбера / Xavier Barbera
    В ролях: Джош Делозье, Мария Паллас, Николь Симпсон, Крис Андерсон
    Описание: Дэниел с семьёй приехал погостить к тёще, тело которой через пару дней нашли в бассейне у дома. Согласно полицейскому рапорту это не было несчастным случаем — женщина была утоплена, погибнув точно так же, как и ранее её муж. Но череда бед, связанных с водой, на этом не закончилась: во время накрывшего город ливня жена Дэниела тоже утонула, дети пропали без вести, а он сам стал инвалидом.
    Доп. информация: / / рип от Ragedevil
    Сэмпл: http://multi-up.com/967375
    Качество видео: DVDRip
    Формат видео: AVI
    Видео: XVID, 720x400, 16:9, 23,976 fps, 1726 kbps
    Аудио: MP3, 48 kHz, 192 kbps, 2.0

    MediaInfo

    General
    Complete name : D:\Movs\The.Wailer.3.2012.Rus.avi
    Format : AVI
    Format/Info : Audio Video Interleave
    File size : 1.21 GiB
    Duration : 1h 29mn
    Overall bit rate : 1 927 Kbps
    Writing library : VirtualDub build 32817/release
    Video
    ID : 0
    Format : MPEG-4 Visual
    Format profile : Advanced Simple@L5
    Format settings, BVOP : 2
    Format settings, QPel : Yes
    Format settings, GMC : No warppoints
    Format settings, Matrix : Default (H.263)
    Codec ID : XVID
    Codec ID/Hint : XviD
    Duration : 1h 29mn
    Bit rate : 1 726 Kbps
    Width : 720 pixels
    Height : 400 pixels
    Display aspect ratio : 16:9
    Frame rate : 23.976 fps
    Color space : YUV
    Chroma subsampling : 4:2:0
    Bit depth : 8 bits
    Scan type : Progressive
    Compression mode : Lossy
    Bits/(Pixel*Frame) : 0.250
    Stream size : 1.08 GiB (90%)
    Writing library : XviD 1.2.1 (UTC 2008-12-04)
    Audio
    ID : 1
    Format : MPEG Audio
    Format version : Version 1
    Format profile : Layer 3
    Mode : Joint stereo
    Codec ID : 55
    Codec ID/Hint : MP3
    Duration : 1h 29mn
    Bit rate mode : Constant
    Bit rate : 192 Kbps
    Channel(s) : 2 channels
    Sampling rate : 48.0 KHz
    Compression mode : Lossy
    Stream size : 123 MiB (10%)
    Alignment : Split accross interleaves
    Interleave, duration : 42 ms (1.00 video frame)
    Interleave, preload duration : 500 ms

    Скриншот c названием фильма

    Скриншоты

    Скачать .torrent

    Скачать торрент-файл бесплатно и на максимальной скорости!

    Как скачивать? · Что такое торрент? · Рейтинг и ограничения

    !ВНИМАНИЕ!
    Сайт не распространяет и не хранит электронные версии произведений, а занимается лишь лишь предоставлением доступа к создаваемому пользователями каталогу ссылок на торрент-файлы, которые содержат только списки хеш-сумм, убедительная просьба с жалобами обращаться напрямую к пользователю. Файлы для обмена на трекере предоставлены пользователями сайта, и администрация не несёт ответственности за их содержание. Просьба не заливать файлы, защищенные авторскими правами, а также файлы нелегального содержания!

    [Профиль] [ЛС]
    Показать сообщения:    
    Ответить на тему

    Текущее время: Сегодня, в 06:00

    Часовой пояс: GMT + 2



    Вы не можете начинать темы
    Вы не можете отвечать на сообщения
    Вы не можете редактировать свои сообщения
    Вы не можете удалять свои сообщения
    Вы не можете голосовать в опросах
    Вы не можете прикреплять файлы к сообщениям
    Вы не можете скачивать файлы