Register  ·  Log in
Forgot password?

  • Воин во времени / Time Warrior (Хоакин Родригез / Joaquin Rodriguez) [2012, США, фантастика, WEB-DLRip] MVO

    Reply to topic
    Author Message


    Post 16-Apr-2014 14:55



    Воин во времени / Time Warrior
    Страна: США
    Жанр: фантастика
    Год выпуска: 2012
    Продолжительность: 01:32:45
    Перевод: Профессиональный (многоголосый закадровый)
    Cубтитры: нет
    Оригинальная аудиодорожка: нет
    Режиссер: Хоакин Родригез / Joaquin Rodriguez
    В ролях: ЭйДжи Бенсон, Томас Грэнинджер, Расти Мейерс, Луис Шомэйкер, Кивон Стоувер
    Описание: Когда в руках Мэтта и Джимми оказывается пиратская версия одной из самых популярных видеоигр, они думают, что это самая крутая видеоигра, в которую они когда-либо играли. Дети не подозревают, что на самом деле — это устройство для включения избранных в отряды реальных воинов времени…
    Доп. информация:

    Качество видео: WEB-DLRip
    Формат видео: AVI
    Видео: Xvid 720x400 23.976fps 1 909 Kbps
    Аудио: Dolby AC3 48000Hz stereo 192kbps


    Complete name : D:\Voin.vo.vremeni.2012.WEBDLRip.avi
    Format : AVI
    Format/Info : Audio Video Interleave
    File size : 1.37 GiB
    Duration : 1h 32mn
    Overall bit rate : 2 110 Kbps
    Writing application : VirtualDubMod | || (build 2550/release)
    Writing library : VirtualDubMod build 2550/release
    ID : 0
    Format : MPEG-4 Visual
    Format profile : Advanced Simple@L5
    Format settings, BVOP : Yes
    Format settings, QPel : No
    Format settings, GMC : No warppoints
    Format settings, Matrix : Default (MPEG)
    Codec ID : XVID
    Codec ID/Hint : XviD
    Duration : 1h 32mn
    Bit rate : 1 909 Kbps
    Width : 720 pixels
    Height : 400 pixels
    Display aspect ratio : 16:9
    Frame rate : 23.976 fps
    Color space : YUV
    Chroma subsampling : 4:2:0
    Bit depth : 8 bits
    Scan type : Progressive
    Compression mode : Lossy
    Bits/(Pixel*Frame) : 0.276
    Stream size : 1.24 GiB (90%)
    Writing library : XviD 1.2.1 (UTC 2008-12-04)
    ID : 1
    Format : AC-3
    Format/Info : Audio Coding 3
    Mode extension : CM (complete main)
    Format settings, Endianness : Big
    Codec ID : 2000
    Duration : 1h 32mn
    Bit rate mode : Constant
    Bit rate : 192 Kbps
    Channel count : 2 channels
    Channel positions : Front: L R
    Sampling rate : 48.0 KHz
    Bit depth : 16 bits
    Compression mode : Lossy
    Stream size : 127 MiB (9%)
    Alignment : Split accross interleaves
    Interleave, duration : 42 ms (1.00 video frame)
    Interleave, preload duration : 500 ms


    Download .torrent

    Download free and at maximum speed!

    How to Download? · What is a torrent? · Ratings and Limitations

    The site does not extend and does not store electronic(digital) versions of products, and only gives access to a reference catalogue created by users on torrent-files which contain only lists of the hash-sums, the earnest entreaty, with complaints(abuse) to access directly to the user. Files for an exchange on tracker are given by users of a site, and the administration does not bear the responsibility for their maintenance. The request to not fill in the files protected by copyrights, and also files of the illegal maintenance!

    [Profile] [PM]
    Display posts from previous:    
    Reply to topic

    The time now is: Today 21:06

    All times are GMT + 3 Hours

    You cannot post new topics in this forum
    You cannot reply to topics in this forum
    You cannot edit your posts in this forum
    You cannot delete your posts in this forum
    You cannot vote in polls in this forum
    You cannot attach files in this forum
    You cannot download files in this forum