BitTorrentTracker PerecTracker.org
BitTorrentTracker PerecTracker.org
    
Регистрация  ·  Вход
 
 · 
Забыли пароль?

  • Воскресные папы / Les papas du dimanche (Луи Беккер / Louis Becker) [2012, Франция, драма, комедия, HDTV 1080i] MVO (НТВ+)

    Ответить на тему
     
    Автор Сообщение

    Columb

    Создавать темы 16-Апр-2014 09:49

           

    [Цитировать]

    Воскресные папы / Les papas du dimanche
    Страна: Франция
    Жанр: драма, комедия
    Год выпуска: 2012
    Продолжительность: 01:25:29
    Перевод: Профессиональный (многоголосый закадровый) НТВ+
    Cубтитры: нет
    Оригинальная аудиодорожка: нет
    Режиссер: Луи Беккер / Louis Becker
    В ролях: Тьерри Нёвик, Элен Фийер, Оливье Барру, Мэрилин Канто, Нина Родригез, Nicolas Rompteaux, Арона Бернхейм-Дэннери, Тьерри Лермитт, Sandra Becker, Ренон Карто
    Описание: После развода Антуан, тяжело работающий отец троих детей, медленно, но верно впадает в депрессию. С помощью старых друзей сползание в пропасть удается остановить, и отношения с детьми постепенно нормализуются. Видясь с ними только раз в неделю, он учится тому, как стать идеальным воскресным отцом и достойной моделью поведения для детей.
    Жизнь должна продолжаться, а радость и улыбка вернуться к нему. Кто знает, возможно, в будущем найдется место и для новых романтических отношений.
    Сэмпл: http://multi-up.com/967294

    Тип релиза: HDTV 1080i
    Контейнер: MKV
    Видео: MPEG4 (H264) 1920x1080 (16:9) 25fps 6242 Kbps
    Аудио: AC3 5.1 ch 48 kHz 16 bit 448 Kbps

    MediaInfo

    Общее
    Уникальный идентификатор : 238914269584309227505641407761545964528 (0xB3BD36EF9788186C9AC90B4D68442BF0)
    Полное имя : D:\Voskresnie.papi.HDTV.1080i.MVO.mkv
    Формат : Matroska
    Версия формата : Version 4 / Version 2
    Размер файла : 4,08 Гбайт
    Продолжительность : 1 ч. 25 м.
    Общий поток : 6826 Кбит/сек
    Название фильма : SharkN73 15.04.2014
    Дата кодирования : UTC 2014-04-15 15:53:13
    Программа кодирования : mkvmerge v6.8.0 ('Theme for Great Cities') 64bit built on Mar 2 2014 21:34:26
    Библиотека кодирования : libebml v1.3.0 + libmatroska v1.4.1
    Видео
    Идентификатор : 1
    Формат : AVC
    Формат/Информация : Advanced Video Codec
    Профиль формата : High@L4.0
    Параметр CABAC формата : Да
    Параметр ReFrames формата : 3 кадра
    Параметр GOP формата : M=4, N=28
    Идентификатор кодека : V_MPEG4/ISO/AVC
    Продолжительность : 1 ч. 25 м.
    Битрейт : 6242 Кбит/сек
    Ширина : 1920 пикселей
    Высота : 1080 пикселей
    Соотношение сторон : 16:9
    Режим частоты кадров : Постоянный
    Частота кадров : 25,000 кадров/сек
    Стандарт вещания : Component
    Цветовое пространство : YUV
    Субдискретизация насыщенности : 4:2:0
    Битовая глубина : 8 бит
    Тип развёртки : Чересстрочная
    Порядок развёртки : Верхнее поле первое
    Бит/(Пиксели*Кадры) : 0.120
    Размер потока : 3,73 Гбайт (91%)
    Язык : English
    Default : Да
    Forced : Нет
    Основные цвета : BT.709
    Характеристики трансфера : BT.709
    Коэффициенты матрицы : BT.709
    Аудио
    Идентификатор : 2
    Формат : AC-3
    Формат/Информация : Audio Coding 3
    Расширение режима : CM (complete main)
    Параметр Endianness формата : Big
    Идентификатор кодека : A_AC3
    Продолжительность : 1 ч. 25 м.
    Вид битрейта : Постоянный
    Битрейт : 448 Кбит/сек
    Каналы : 2 канала
    Channel(s)_Original : 6 каналов
    Расположение каналов : Front: L C R, Side: L R, LFE
    Частота : 48,0 КГц
    Битовая глубина : 16 бит
    Метод сжатия : С потерями
    Задержка видео : 1 мс.
    Размер потока : 274 Мбайт (7%)
    Язык : Russian
    Default : Да
    Forced : Нет

    Скриншоты

    Скачать .torrent

    Скачать торрент-файл бесплатно и на максимальной скорости!

    Как скачивать? · Что такое торрент? · Рейтинг и ограничения

    !ВНИМАНИЕ!
    Сайт не распространяет и не хранит электронные версии произведений, а занимается лишь лишь предоставлением доступа к создаваемому пользователями каталогу ссылок на торрент-файлы, которые содержат только списки хеш-сумм, убедительная просьба с жалобами обращаться напрямую к пользователю. Файлы для обмена на трекере предоставлены пользователями сайта, и администрация не несёт ответственности за их содержание. Просьба не заливать файлы, защищенные авторскими правами, а также файлы нелегального содержания!

    [Профиль] [ЛС]
    Показать сообщения:    
    Ответить на тему

    Текущее время: Сегодня, в 15:00

    Часовой пояс: GMT + 2



    Вы не можете начинать темы
    Вы не можете отвечать на сообщения
    Вы не можете редактировать свои сообщения
    Вы не можете удалять свои сообщения
    Вы не можете голосовать в опросах
    Вы не можете прикреплять файлы к сообщениям
    Вы не можете скачивать файлы