BitTorrentTracker PerecTracker.org
BitTorrentTracker PerecTracker.org
    
Регистрация  ·  Вход
 
 · 
Забыли пароль?

  • Спаркс / Sparks (Тодд Берроуз / Todd Burrows, Кристофер Фолино / Christopher Folino) [2013, США, Фантастика, Боевик, Триллер, HDRip] DVO (DeadSno & den904)

    Ответить на тему
     
    Автор Сообщение

    Columb

    Создавать темы 16-Апр-2014 09:42

           

    [Цитировать]

    Спаркс / Sparks
    Страна: США
    Жанр: Фантастика, Боевик, Триллер
    Год выпуска: 2013
    Продолжительность: 01:38:22
    Перевод: Любительский (двухголосый закадровый) [DeadSno & den904]
    Cубтитры: нет
    Режиссер: Тодд Берроуз / Todd Burrows, Кристофер Фолино / Christopher Folino
    В ролях: Чейз Уильямсон, Эшли Белл, Клэнси Браун, Джейк Бьюзи, Уильям Кэтт, Марина Скверсьяти, Клинт Ховард, Скотт Ринкер, Дэвид Соболев, Ларри Седар, Эстебан Куето, Дэйв Хэнсон, Стивен Кеарин
    Описание: После падения на Землю радиоактивного метеорита, некоторые люди получили удивительные, сверхчеловеческие способности. Один из таких «мутантов», Ян Спаркс, совершенно не считал себя героем, но после смерти родителей, вступил в отчаянную схватку с преступностью Нью-Йорка. Вместе с очаровательной Небесной Леди они составляют великолепную пару, которая быстро очищает город от головорезов. Но однажды они встречаются с чрезвычайно опасным противником...Доп. информация:перевод на русский язык [МЕГАПЫХАРЬ & ОХ!СТУДИЯ]
    Сэмпл: http://multi-up.com/966685
    Качество видео: HDRip
    Формат видео: AVI
    Видео: XVID, 720x400, (16:9), 23,976 кадра/сек, 1509 Кбит/сек
    Аудио: AC-3, 48,0 КГц, 448 Кбит/сек (6 каналов)

    MediaInfo

    Формат : AVI
    Формат/Информация : Audio Video Interleave
    Размер файла : 1,35 Гбайт
    Продолжительность : 1 ч. 38 м.
    Общий поток : 1967 Кбит/сек
    Программа кодирования : VirtualDubMod 1.5.10.2 (build 2542/release)
    Библиотека кодирования : VirtualDubMod build 2542/release
    Видео
    Идентификатор : 0
    Формат : MPEG-4 Visual
    Профиль формата : Advanced Simple@L5
    Параметр BVOP формата : 1
    Параметр QPel формата : Нет
    Параметр GMC формата : Без точки перехода
    Параметр матрицы формата : Default (H.263)
    Идентификатор кодека : XVID
    Идентификатор кодека/Подсказка : XviD
    Продолжительность : 1 ч. 38 м.
    Битрейт : 1509 Кбит/сек
    Ширина : 720 пикселей
    Высота : 400 пикселей
    Соотношение сторон : 16:9
    Частота кадров : 23,976 кадра/сек
    Цветовое пространство : YUV
    Субдискретизация насыщенности : 4:2:0
    Битовая глубина : 8 бит
    Тип развёртки : Прогрессивная
    Метод сжатия : С потерями
    Бит/(Пиксели*Кадры) : 0.219
    Размер потока : 1,04 Гбайт (77%)
    Библиотека кодирования : XviD 73
    Аудио
    Идентификатор : 1
    Формат : AC-3
    Формат/Информация : Audio Coding 3
    Расширение режима : CM (complete main)
    Параметр Endianness формата : Big
    Идентификатор кодека : 2000
    Продолжительность : 1 ч. 38 м.
    Вид битрейта : Постоянный
    Битрейт : 448 Кбит/сек
    Каналы : 6 каналов
    Расположение каналов : Front: L C R, Side: L R, LFE
    Частота : 48,0 КГц
    Битовая глубина : 16 бит
    Метод сжатия : С потерями
    Размер потока : 315 Мбайт (23%)
    Выравнивание : Разделение по промежуткам
    Продолжительность промежутка : 42 мс. (1,00 видеокадр)
    Время предзагрузки промежутка : 500 мс.

    Скриншот c названием фильма

    Скриншоты

    Скачать .torrent

    Скачать торрент-файл бесплатно и на максимальной скорости!

    Как скачивать? · Что такое торрент? · Рейтинг и ограничения

    !ВНИМАНИЕ!
    Сайт не распространяет и не хранит электронные версии произведений, а занимается лишь лишь предоставлением доступа к создаваемому пользователями каталогу ссылок на торрент-файлы, которые содержат только списки хеш-сумм, убедительная просьба с жалобами обращаться напрямую к пользователю. Файлы для обмена на трекере предоставлены пользователями сайта, и администрация не несёт ответственности за их содержание. Просьба не заливать файлы, защищенные авторскими правами, а также файлы нелегального содержания!

    [Профиль] [ЛС]
    Показать сообщения:    
    Ответить на тему

    Текущее время: Сегодня, в 22:28

    Часовой пояс: GMT + 2



    Вы не можете начинать темы
    Вы не можете отвечать на сообщения
    Вы не можете редактировать свои сообщения
    Вы не можете удалять свои сообщения
    Вы не можете голосовать в опросах
    Вы не можете прикреплять файлы к сообщениям
    Вы не можете скачивать файлы