Register  ·  Log in
Forgot password?

  • Спасибо за обмен / Thanks for Sharing (Стюарт Блумберг / Stuart Blumberg) [2012, США, драма, комедия, HDRip] MVO

    Reply to topic
    Author Message


    Post 16-Apr-2014 10:13



    Спасибо за обмен / Thanks for Sharing
    Страна: США
    Жанр: драма, комедия
    Год выпуска: 2012
    Продолжительность: 01:52:40
    Перевод: Профессиональный (многоголосый закадровый)
    Cубтитры: нет
    Оригинальная аудиодорожка: нет
    Режиссер: Стюарт Блумберг / Stuart Blumberg
    В ролях: Марк Руффало, Тим Роббинс, Гвинет Пэлтроу, Джош Гад, Джоэли Ричардсон, Патрик Фьюджит, Кэрол Кейн, Пинк, Эмили Миде, Исайя Уитлок мл.
    Описание: Три сексоголика решили бороться с пагубной зависимостью. С этой целью они отправляются в специальную клинику, где в рамках лечения должны пройти 12 этапов реабилитационного процесса. Дело это, как оказывается, непростое, но чего не сделаешь ради того, чтобы оправиться от сексуальной зависимости и наладить конструктивные отношения с окружающими, пожалуй, в первый раз в жизни…

    Качество видео: HDRip
    Формат видео: AVI
    Видео: XviD 73, 576x320 (16:9), 23.976 fps, 786 Kbps
    Аудио: MP3, 48.0 kHz, 128 Kbps, 2 ch, CBR
    Релиз от: Scarabey


    Complete name                            : Thanks.for.Sharing.2012.P.HDRip.avi
    Format                                   : AVI
    Format/Info                              : Audio Video Interleave
    File size                                : 744 MiB
    Duration                                 : 1h 52mn
    Overall bit rate                         : 924 Kbps
    Writing application                      : VirtualDubMod | || (build 2550/release)
    Writing library                          : VirtualDubMod build 2550/release
    ID                                       : 0
    Format                                   : MPEG-4 Visual
    Format profile                           : Advanced Simple@L5
    Format settings, BVOP                    : 1
    Format settings, QPel                    : No
    Format settings, GMC                     : No warppoints
    Format settings, Matrix                  : Custom
    Codec ID                                 : XVID
    Codec ID/Hint                            : XviD
    Duration                                 : 1h 52mn
    Bit rate                                 : 786 Kbps
    Width                                    : 576 pixels
    Height                                   : 320 pixels
    Display aspect ratio                     : 16:9
    Frame rate                               : 23.976 fps
    Color space                              : YUV
    Chroma subsampling                       : 4:2:0
    Bit depth                                : 8 bits
    Scan type                                : Progressive
    Compression mode                         : Lossy
    Bits/(Pixel*Frame)                       : 0.178
    Stream size                              : 634 MiB (85%)
    Writing library                          : XviD 73
    ID                                       : 1
    Format                                   : MPEG Audio
    Format version                           : Version 1
    Format profile                           : Layer 3
    Codec ID                                 : 55
    Codec ID/Hint                            : MP3
    Duration                                 : 1h 52mn
    Bit rate mode                            : Constant
    Bit rate                                 : 128 Kbps
    Channel(s)                               : 2 channels
    Sampling rate                            : 48.0 KHz
    Compression mode                         : Lossy
    Stream size                              : 103 MiB (14%)
    Alignment                                : Aligned on interleaves
    Interleave, duration                     : 42 ms (1.00 video frame)
    Interleave, preload duration             : 504 ms
    Writing library                          : LAME3.99r
    Encoding settings                        : -m s -V 4 -q 2 -lowpass 17 -b 128

    Скриншот c названием фильма


    Download .torrent

    Download free and at maximum speed!

    How to Download? · What is a torrent? · Ratings and Limitations

    The site does not extend and does not store electronic(digital) versions of products, and only gives access to a reference catalogue created by users on torrent-files which contain only lists of the hash-sums, the earnest entreaty, with complaints(abuse) to access directly to the user. Files for an exchange on tracker are given by users of a site, and the administration does not bear the responsibility for their maintenance. The request to not fill in the files protected by copyrights, and also files of the illegal maintenance!

    [Profile] [PM]
    Display posts from previous:    
    Reply to topic

    The time now is: Today 00:36

    All times are GMT + 3 Hours

    You cannot post new topics in this forum
    You cannot reply to topics in this forum
    You cannot edit your posts in this forum
    You cannot delete your posts in this forum
    You cannot vote in polls in this forum
    You cannot attach files in this forum
    You cannot download files in this forum