BitTorrentTracker PerecTracker.org
BitTorrentTracker PerecTracker.org
    
Регистрация  ·  Вход
 
 · 
Забыли пароль?

  • Медвежонок Тед / Третий лишний / Ted (Сет МакФарлейн / Seth MacFarlane) [2012, США, Комедия, HDRip] [UNRATED] Dub

    Ответить на тему
     
    Автор Сообщение

    Columb

    Создавать темы 16-Апр-2014 09:04

           

    [Цитировать]

    Медвежонок Тед / Третий лишний / Ted / UNRATED
    Страна: США
    Жанр: Комедия
    Год выпуска: 2012
    Продолжительность: 01:52:15
    Перевод: Профессиональный (дублированный)+вставки VO
    Cубтитры: нет
    Оригинальная аудиодорожка: нет
    Режиссер: Сет МакФарлейн / Seth MacFarlane
    В ролях: Марк Уолберг, Мила Кунис, Сет МакФарлейн, Джоэль МакХэйл, Джованни Рибизи, Патрик Варбертон, Мэтт Уолш, Джессика Барт, Аэдин Минкс, Билл Смитрович.
    Описание: Джон влюблен в красавицу Лори, у него отличная работа и большие планы на будущее. Но в их отношения вмешивается третий, давний друг Джона — Тед. Он отрывается сутки напролет, предпочитает случайные связи и не желает терять друга. Но никто на самом деле не знает на что он способен, ведь Тед — большой плюшевый медведь.
    Доп. информация: В дубляже сделаны вставки с одноголосым переводом (не помню чьим - это было написано в прошлой моей раздаче, которую кто-то "исчез") на места, отсутствующие в театральной версии. Внимание, присутствует ненормативная лексика.
    Сэмпл: http://multi-up.com/967308
    Качество видео: HDRip
    Формат видео: AVI
    Видео: MPEG4, XviD, 704x384 (16/9), 23.976 fps, 1 398 Kbps (0.216 bit/pixel)
    Аудио: AC-3, 48.0 KHz, 6 ch, 448 Kbps, CBR

    MediaInfo

    Общее
    Полное имя : K:\МОИ РАЗДАЧИ\Третий лишний.avi
    Формат : AVI
    Формат/Информация : Audio Video Interleave
    Размер файла : 1,45 Гбайт
    Продолжительность : 1 ч. 52 м.
    Общий поток : 1855 Кбит/сек
    Название фильма : Третий лишний / Ted [Unrated] (2012)
    Программа кодирования : VirtualDubMod 1.5.10.2 (build 2540/release)
    Библиотека кодирования : VirtualDubMod build 2540/release
    Видео
    Идентификатор : 0
    Формат : MPEG-4 Visual
    Профиль формата : Advanced Simple@L5
    Параметр BVOP формата : 2
    Параметр QPel формата : Нет
    Параметр GMC формата : Без точки перехода
    Параметр матрицы формата : Выборочная
    Идентификатор кодека : XVID
    Идентификатор кодека/Подсказка : XviD
    Продолжительность : 1 ч. 52 м.
    Битрейт : 1398 Кбит/сек
    Ширина : 704 пикселя
    Высота : 384 пикселя
    Соотношение сторон : 1,85:1
    Частота кадров : 23,976 кадра/сек
    Цветовое пространство : YUV
    Субдискретизация насыщенности : 4:2:0
    Битовая глубина : 8 бит
    Тип развёртки : Прогрессивная
    Метод сжатия : С потерями
    Бит/(Пиксели*Кадры) : 0.216
    Размер потока : 1,10 Гбайт (75%)
    Библиотека кодирования : XviD 73
    Аудио
    Идентификатор : 1
    Формат : AC-3
    Формат/Информация : Audio Coding 3
    Расширение режима : CM (complete main)
    Параметр Endianness формата : Big
    Идентификатор кодека : 2000
    Продолжительность : 1 ч. 52 м.
    Вид битрейта : Постоянный
    Битрейт : 448 Кбит/сек
    Каналы : 6 каналов
    Расположение каналов : Front: L C R, Side: L R, LFE
    Частота : 48,0 КГц
    Битовая глубина : 16 бит
    Метод сжатия : С потерями
    Размер потока : 360 Мбайт (24%)
    Выравнивание : Разделение по промежуткам
    Продолжительность промежутка : 42 мс. (1,00 видеокадр)
    Время предзагрузки промежутка : 500 мс.
    Заголовок : Профессиональный (полное дублирование)

    Скриншот c названием фильма

    Скриншоты


    Скачать .torrent

    Скачать торрент-файл бесплатно и на максимальной скорости!

    Как скачивать? · Что такое торрент? · Рейтинг и ограничения

    !ВНИМАНИЕ!
    Сайт не распространяет и не хранит электронные версии произведений, а занимается лишь лишь предоставлением доступа к создаваемому пользователями каталогу ссылок на торрент-файлы, которые содержат только списки хеш-сумм, убедительная просьба с жалобами обращаться напрямую к пользователю. Файлы для обмена на трекере предоставлены пользователями сайта, и администрация не несёт ответственности за их содержание. Просьба не заливать файлы, защищенные авторскими правами, а также файлы нелегального содержания!

    [Профиль] [ЛС]
    Показать сообщения:    
    Ответить на тему

    Текущее время: Сегодня, в 03:07

    Часовой пояс: GMT + 2



    Вы не можете начинать темы
    Вы не можете отвечать на сообщения
    Вы не можете редактировать свои сообщения
    Вы не можете удалять свои сообщения
    Вы не можете голосовать в опросах
    Вы не можете прикреплять файлы к сообщениям
    Вы не можете скачивать файлы