BitTorrentTracker PerecTracker.org
BitTorrentTracker PerecTracker.org
    
Регистрация  ·  Вход
 
 · 
Забыли пароль?

  • Европа / Europa Report (Себастьян Кордеро / Sebastián Cordero) [2013, США, фантастика, триллер, HDRip] Dub (iTunes)

    Ответить на тему
     
    Автор Сообщение

    Columb

    Создавать темы 16-Апр-2014 09:02

           

    [Цитировать]

    Европа / Europa Report
    Страна: США
    Жанр: фантастика, триллер
    Год выпуска: 2013
    Продолжительность: 01:30:25
    Перевод: Профессиональный (дублированный) | iTunes
    Cубтитры: нет
    Оригинальная аудиодорожка: нет
    Режиссер: Себастьян Кордеро / Sebastián Cordero
    В ролях: Кристиан Камарго, Анамария Маринка, Микаэл Нюквист, Дэниэл Ву, Каролина Выдра, Шарлто Копли, Эмбет Дэвидц, Дэн Фоглер, Исайя Уитлок мл., Нил Тайсон
    Описание: Фильм повествует о международной космической экспедиции к шестому спутнику Юпитера, которую снаряжает некая частная корпорация. Цель полёта — высадиться на поверхность Европы, в подлёдном океане которой учёные теоретически предполагают наличие жизни.

    Сэмпл: http://sendfile.su/968217
    Качество видео: HDRip
    Формат видео: AVI
    Видео: XviD 73, 624x352 (16:9), 23.976 fps, 1011 Kbps
    Аудио: MP3, 48.0 kHz, 128 Kbps, 2 ch, CBR
    Релиз от: Scarabey

    MediaInfo

    General
    Complete name                            : Europa.Report.2013.D.HDRip.avi
    Format                                   : AVI
    Format/Info                              : Audio Video Interleave
    File size                                : 742 MiB
    Duration                                 : 1h 30mn
    Overall bit rate                         : 1 148 Kbps
    Writing application                      : VirtualDubMod 1.5.10.3 | www.virtualdub-fr.org || (build 2550/release)
    Writing library                          : VirtualDubMod build 2550/release
    Video
    ID                                       : 0
    Format                                   : MPEG-4 Visual
    Format profile                           : Advanced Simple@L5
    Format settings, BVOP                    : 1
    Format settings, QPel                    : No
    Format settings, GMC                     : No warppoints
    Format settings, Matrix                  : Custom
    Codec ID                                 : XVID
    Codec ID/Hint                            : XviD
    Duration                                 : 1h 30mn
    Bit rate                                 : 1 011 Kbps
    Width                                    : 624 pixels
    Height                                   : 352 pixels
    Display aspect ratio                     : 16:9
    Frame rate                               : 23.976 fps
    Color space                              : YUV
    Chroma subsampling                       : 4:2:0
    Bit depth                                : 8 bits
    Scan type                                : Progressive
    Compression mode                         : Lossy
    Bits/(Pixel*Frame)                       : 0.192
    Stream size                              : 654 MiB (88%)
    Writing library                          : XviD 73
    Audio
    ID                                       : 1
    Format                                   : MPEG Audio
    Format version                           : Version 1
    Format profile                           : Layer 3
    Codec ID                                 : 55
    Codec ID/Hint                            : MP3
    Duration                                 : 1h 30mn
    Bit rate mode                            : Constant
    Bit rate                                 : 128 Kbps
    Channel(s)                               : 2 channels
    Sampling rate                            : 48.0 KHz
    Compression mode                         : Lossy
    Stream size                              : 82.6 MiB (11%)
    Alignment                                : Aligned on interleaves
    Interleave, duration                     : 42 ms (1.00 video frame)
    Interleave, preload duration             : 504 ms
    Writing library                          : LAME3.99r
    Encoding settings                        : -m s -V 4 -q 2 -lowpass 17 -b 128

    Скриншот c названием фильма

    Скриншоты

    Скачать .torrent

    Скачать торрент-файл бесплатно и на максимальной скорости!

    Как скачивать? · Что такое торрент? · Рейтинг и ограничения

    !ВНИМАНИЕ!
    Сайт не распространяет и не хранит электронные версии произведений, а занимается лишь лишь предоставлением доступа к создаваемому пользователями каталогу ссылок на торрент-файлы, которые содержат только списки хеш-сумм, убедительная просьба с жалобами обращаться напрямую к пользователю. Файлы для обмена на трекере предоставлены пользователями сайта, и администрация не несёт ответственности за их содержание. Просьба не заливать файлы, защищенные авторскими правами, а также файлы нелегального содержания!

    [Профиль] [ЛС]
    Показать сообщения:    
    Ответить на тему

    Текущее время: Сегодня, в 00:04

    Часовой пояс: GMT + 2



    Вы не можете начинать темы
    Вы не можете отвечать на сообщения
    Вы не можете редактировать свои сообщения
    Вы не можете удалять свои сообщения
    Вы не можете голосовать в опросах
    Вы не можете прикреплять файлы к сообщениям
    Вы не можете скачивать файлы