BitTorrentTracker PerecTracker.org
BitTorrentTracker PerecTracker.org
    
Регистрация  ·  Вход
 
 · 
Забыли пароль?

  • Петля времени / Looper (Райан Джонсон / Rian Johnson) [2012, США, Китай, фантастика, боевик, триллер, криминал, HDRip] Dub

    Ответить на тему
     
    Автор Сообщение

    Columb

    Создавать темы 16-Апр-2014 08:59

           

    [Цитировать]

    Петля времени / Looper-Страна: США, Китай
    Жанр: фантастика, боевик, триллер, криминал
    Год выпуска: 2012
    Продолжительность: 01:58:53
    Перевод: Профессиональный (дублированный)
    Cубтитры: нет-Режиссер: Райан Джонсон / Rian Johnson
    В ролях: Джозеф Гордон-Левитт (Joe), Брюс Уиллис (Old Joe), Эмили Блант (Sara), Джефф Дэниелс (Abe), Ной Сеган (Kid Blue), Пирс Гэнон (Cid), Пол Дано (Seth), Пайпер Перабо (Suzie), Квинг Ксу (Old Joe's Wife), Трейси Томс (Beatrix).
    Описание: Джо живет в 2044 году, где цивилизация пришла к тому, что убийство бродяг уже не считается преступлением. Но через 30 лет картина меняется и государство перестает контролировать несанкционированные убийства. Мафии удается найти незаконно изобретенную машину времени. Теперь всех жертв отправляют в 2044 год, где убийцы, луперы, сразу же убивают их на месте. Однажды все луперы обнаруживают удвоенную плату за свою работу, что означает, что они только что убили самих себя из будущего. Один из луперов по имени Джо, обнаружив, что убил себя в старости, решил отойти от дел и отправиться в Шанхай, где он несколько лет проводит в развлечениях, просаживая все заработанные деньги. Но вскоре ситуация меняется и ему приходится отправиться в прошлое.-Качество видео: HDRip (источник: BDRip / 1080p)
    Формат видео: AVI | Sample
    Видео: 640x272 (2.35:1), 23.976 fps, XviD build 73 ~741 kbps avg, 0.18 bit/pixel
    Аудио: 48 kHz, MPEG Layer 3, 2 ch, ~128.00 kbps avg

    Скриншоты

    Медиаинфо

    Общее
    Формат : AVI
    Формат/Информация : Audio Video Interleave
    Размер файла : 747 Мбайт
    Продолжительность : 1 ч. 58 м.
    Общий поток : 878 Кбит/сек
    Программа кодирования : VirtualDubModRus 1.5.10.2 (build 2542/release)
    Библиотека кодирования : VirtualDubMod build 2542/release
    Видео
    Идентификатор : 0
    Формат : MPEG-4 Visual
    Профиль формата : Advanced Simple@L5
    Параметр BVOP формата : 1
    Параметр QPel формата : Нет
    Параметр GMC формата : Без точки перехода
    Параметр матрицы формата : Выборочная
    Идентификатор кодека : XVID
    Идентификатор кодека/Подсказка : XviD
    Продолжительность : 1 ч. 58 м.
    Битрейт : 741 Кбит/сек
    Ширина : 640 пикселей
    Высота : 272 пикселя
    Соотношение сторон : 2,35:1
    Частота кадров : 23,976 кадра/сек
    Цветовое пространство : YUV
    Субдискретизация насыщенности : 4:2:0
    Битовая глубина : 8 бит
    Тип развёртки : Прогрессивная
    Метод сжатия : С потерями
    Бит/(Пиксели*Кадры) : 0.177
    Размер потока : 630 Мбайт (84%)
    Библиотека кодирования : XviD 73
    Аудио
    Идентификатор : 1
    Формат : MPEG Audio
    Версия формата : Version 1
    Профиль формата : Layer 3
    Идентификатор кодека : 55
    Идентификатор кодека/Подсказка : MP3
    Продолжительность : 1 ч. 58 м.
    Вид битрейта : Постоянный
    Битрейт : 128 Кбит/сек
    Каналы : 2 канала
    Частота : 48,0 КГц
    Метод сжатия : С потерями
    Размер потока : 109 Мбайт (15%)
    Выравнивание : Соединение по промежуткам
    Продолжительность промежутка : 42 мс. (1,00 видеокадр)
    Время предзагрузки промежутка : 504 мс.
    Библиотека кодирования : LAME3.97
    Настройки программы : -m s -V 4 -q 2 -lowpass 17 -b 128
    Скачать .torrent

    Скачать торрент-файл бесплатно и на максимальной скорости!

    Как скачивать? · Что такое торрент? · Рейтинг и ограничения

    !ВНИМАНИЕ!
    Сайт не распространяет и не хранит электронные версии произведений, а занимается лишь лишь предоставлением доступа к создаваемому пользователями каталогу ссылок на торрент-файлы, которые содержат только списки хеш-сумм, убедительная просьба с жалобами обращаться напрямую к пользователю. Файлы для обмена на трекере предоставлены пользователями сайта, и администрация не несёт ответственности за их содержание. Просьба не заливать файлы, защищенные авторскими правами, а также файлы нелегального содержания!

    [Профиль] [ЛС]
    Показать сообщения:    
    Ответить на тему

    Текущее время: Сегодня, в 08:01

    Часовой пояс: GMT + 2



    Вы не можете начинать темы
    Вы не можете отвечать на сообщения
    Вы не можете редактировать свои сообщения
    Вы не можете удалять свои сообщения
    Вы не можете голосовать в опросах
    Вы не можете прикреплять файлы к сообщениям
    Вы не можете скачивать файлы