Register  ·  Log in
Forgot password?

  • Черно-белый секс / Black & White & Sex (Джон Винтер / John Winter) [2012, Австралия, DVDRip] MVO

    Reply to topic
    Author Message


    Post 15-Apr-2014 19:08



    Черно-белый секс / Black & White & SexСтрана: Австралия
    Жанр: драма
    Год выпуска: 2012
    Перевод: Профессиональный (многоголосый закадровый) НТВ+
    Cубтитры: нет
    Режиссер: Джон Винтер / John Winter
    В ролях: Кэтерин Хикс, Anya Beyersdorf, Валери Бейдер, Роксана Уилсон, Мишель Вергара Мур, Дина Паноццо, Саския Бурмайстер, Майа Томас, Мэттью Холмс
    Описание: Проститутка, сексуальная и соблазнительная, Энджи намерена установить рекорд в откровениях о сексе. Открывая себя шаг за шагом человеку, который берет у нее интервью, она в то же время провоцирует и его самого. Иногда слишком откровенная, иногда нежная и всегда сексуальная, героиня фильма уводит за собой за кулисы в особый мир.
    Качество видео: DVDRip
    Формат видео: AVI
    Видео кодек: XviD
    Аудио кодек: AC3
    Видео: 640x272 (2.35:1), 25 fps, XviD build 64 ~953 kbps avg, 0.22 bit/pixel
    Аудио: 48 kHz, AC3 Dolby Digital, 2/0 (L,R) ch, ~192 kbps


    Complete name : Cherno.belyj.seks.2012.DVDRip.avi
    Format : AVI
    Format/Info : Audio Video Interleave
    File size : 746 MiB
    Duration : 1h 30mn
    Overall bit rate : 1 156 Kbps
    Writing application : VirtualDubMod (build 2540/release)
    Writing library : VirtualDubMod build 2540/release
    ID : 0
    Format : MPEG-4 Visual
    Format profile : Advanced Simple@L5
    Format settings, BVOP : 2
    Format settings, QPel : No
    Format settings, GMC : No warppoints
    Format settings, Matrix : Default (H.263)
    Codec ID : XVID
    Codec ID/Hint : XviD
    Duration : 1h 30mn
    Bit rate : 954 Kbps
    Width : 640 pixels
    Height : 272 pixels
    Display aspect ratio : 2.35:1
    Frame rate : 25.000 fps
    Color space : YUV
    Chroma subsampling : 4:2:0
    Bit depth : 8 bits
    Scan type : Progressive
    Compression mode : Lossy
    Bits/(Pixel*Frame) : 0.219
    Stream size : 616 MiB (83%)
    Writing library : XviD 64
    ID : 1
    Format : AC-3
    Format/Info : Audio Coding 3
    Mode extension : CM (complete main)
    Format settings, Endianness : Big
    Codec ID : 2000
    Duration : 1h 30mn
    Bit rate mode : Constant
    Bit rate : 192 Kbps
    Channel(s) : 2 channels
    Channel positions : Front: L R
    Sampling rate : 48.0 KHz
    Bit depth : 16 bits
    Compression mode : Lossy
    Stream size : 124 MiB (17%)
    Alignment : Split accross interleaves
    Interleave, duration : 40 ms (1.00 video frame)
    Interleave, preload duration : 500 ms


    Download .torrent

    Download free and at maximum speed!

    How to Download? · What is a torrent? · Ratings and Limitations

    The site does not extend and does not store electronic(digital) versions of products, and only gives access to a reference catalogue created by users on torrent-files which contain only lists of the hash-sums, the earnest entreaty, with complaints(abuse) to access directly to the user. Files for an exchange on tracker are given by users of a site, and the administration does not bear the responsibility for their maintenance. The request to not fill in the files protected by copyrights, and also files of the illegal maintenance!

    [Profile] [PM]
    Display posts from previous:    
    Reply to topic

    The time now is: Today 19:07

    All times are GMT + 3 Hours

    You cannot post new topics in this forum
    You cannot reply to topics in this forum
    You cannot edit your posts in this forum
    You cannot delete your posts in this forum
    You cannot vote in polls in this forum
    You cannot attach files in this forum
    You cannot download files in this forum