BitTorrentTracker PerecTracker.org
BitTorrentTracker PerecTracker.org
    
Регистрация  ·  Вход
 
 · 
Забыли пароль?

  • Дешевый трепет / Cheap Thrills (Ивэн Кац / E.L. Katz) [2013, США, триллер, комедия, HDRip] DVO (DeadSno & den904) + Original Eng

    Ответить на тему
     
    Автор Сообщение

    Columb

    Создавать темы 15-Апр-2014 18:06

           

    [Цитировать]

    Дешевый трепет / Cheap Thrills
    Страна: США
    Жанр: триллер, комедия
    Год выпуска: 2013
    Продолжительность: 01:27:12
    Перевод: Любительский (двухголосый закадровый) DeadSno & den904
    Cубтитры: нет
    Оригинальная аудиодорожка: английский
    Режиссер: Ивэн Кац / E.L. Katz
    В ролях: Пэт Хили, Итэн Эмбри, Сара Пэкстон, Дэвид Кокнер, Аманда Фуллер, Лаура Ковелли, Элисса Бри, Вэл Эмануэл, Тодд Фармер, Эрик Нил Гутьеррес
    Описание: Крейга увольняют с работы, и теперь ему грозит выселение из квартиры, счета за которую он больше не может оплачивать. Беспокоясь о судьбе своего новорожденного ребёнка, Крейг пытается найти выход из сложившегося положения. Неожиданно он находит помощь в лице одной состоятельной супружеской пары. Правда в обмен на финансовую помощь, он будет должен кое-что сделать для них. Крейг соглашается, не видя иного выхода, но вскоре понимает, что поторопился принять их предложение...
    Доп. информация:
    Сэмпл: http://multi-up.com/967160
    Качество видео: HDRip
    Формат видео: AVI
    Видео: Xvid 720x304 23.976fps 1 900 Kbps
    Аудио: Dolby AC3 48000Hz stereo 192kbps Русский
    Аудио 2: AC-3 48.0 KHz 6 ch 448 Kbps Английский

    MediaInfo

    General
    Complete name : D:\Cheap.Thrills.2013.HDRip.avi
    Format : AVI
    Format/Info : Audio Video Interleave
    File size : 1.56 GiB
    Duration : 1h 27mn
    Overall bit rate : 2 554 Kbps
    Writing application : VirtualDubMod 1.5.10.2 (build 2542/release)
    Writing library : VirtualDubMod build 2542/release
    Video
    ID : 0
    Format : MPEG-4 Visual
    Format profile : Advanced Simple@L5
    Format settings, BVOP : Yes
    Format settings, QPel : No
    Format settings, GMC : No warppoints
    Format settings, Matrix : Default (H.263)
    Codec ID : XVID
    Codec ID/Hint : XviD
    Duration : 1h 27mn
    Bit rate : 1 900 Kbps
    Width : 720 pixels
    Height : 304 pixels
    Display aspect ratio : 2.35:1
    Frame rate : 23.976 fps
    Color space : YUV
    Chroma subsampling : 4:2:0
    Bit depth : 8 bits
    Scan type : Progressive
    Compression mode : Lossy
    Bits/(Pixel*Frame) : 0.362
    Stream size : 1.16 GiB (74%)
    Writing library : XviD 73
    Audio #1
    ID : 1
    Format : AC-3
    Format/Info : Audio Coding 3
    Mode extension : CM (complete main)
    Format settings, Endianness : Big
    Codec ID : 2000
    Duration : 1h 27mn
    Bit rate mode : Constant
    Bit rate : 192 Kbps
    Channel count : 2 channels
    Channel positions : Front: L R
    Sampling rate : 48.0 KHz
    Bit depth : 16 bits
    Compression mode : Lossy
    Stream size : 120 MiB (8%)
    Alignment : Split accross interleaves
    Interleave, duration : 42 ms (1.00 video frame)
    Interleave, preload duration : 500 ms
    Audio #2
    ID : 2
    Format : AC-3
    Format/Info : Audio Coding 3
    Mode extension : CM (complete main)
    Format settings, Endianness : Big
    Codec ID : 2000
    Duration : 1h 27mn
    Bit rate mode : Constant
    Bit rate : 448 Kbps
    Channel count : 6 channels
    Channel positions : Front: L C R, Side: L R, LFE
    Sampling rate : 48.0 KHz
    Bit depth : 16 bits
    Compression mode : Lossy
    Stream size : 279 MiB (18%)
    Alignment : Split accross interleaves
    Interleave, duration : 42 ms (1.00 video frame)
    Interleave, preload duration : 500 ms

    Скриншоты

    Скачать .torrent

    Скачать торрент-файл бесплатно и на максимальной скорости!

    Как скачивать? · Что такое торрент? · Рейтинг и ограничения

    !ВНИМАНИЕ!
    Сайт не распространяет и не хранит электронные версии произведений, а занимается лишь лишь предоставлением доступа к создаваемому пользователями каталогу ссылок на торрент-файлы, которые содержат только списки хеш-сумм, убедительная просьба с жалобами обращаться напрямую к пользователю. Файлы для обмена на трекере предоставлены пользователями сайта, и администрация не несёт ответственности за их содержание. Просьба не заливать файлы, защищенные авторскими правами, а также файлы нелегального содержания!

    [Профиль] [ЛС]
    Показать сообщения:    
    Ответить на тему

    Текущее время: Сегодня, в 00:08

    Часовой пояс: GMT + 2



    Вы не можете начинать темы
    Вы не можете отвечать на сообщения
    Вы не можете редактировать свои сообщения
    Вы не можете удалять свои сообщения
    Вы не можете голосовать в опросах
    Вы не можете прикреплять файлы к сообщениям
    Вы не можете скачивать файлы