Register  ·  Log in
Forgot password?

  • Метро Манила / Метрополитен Манила / Metro Manila (Шон Эллис / Sean Ellis) [2013, Великобритания, Филиппины, Драма, криминал, HDRip] VO (Lenape) + Sub (Eng)

    Reply to topic
    Author Message


    Post 15-Apr-2014 19:01



    Метро Манила / Метрополитен Манила / Metro Manila«Desperate men take desperate measures»-Страна: Великобритания, Филиппины
    Жанр: Драма, криминал
    Год выпуска: 2013
    Продолжительность: 01:54:26-Перевод: Одноголосый закадровый [Lenape]
    Cубтитры: английские (хардсаб)-Режиссер: Шон Эллис / Sean Ellis-В ролях: Джейк Макапагал, Алтея Вега, Джон Арсилья, Ана Абад-Сантос, Майлс Канапи, Мозес Магиса, Рубен Юи-Описание: В надежде на лучшую жизнь, Оскар Рамирез и его семья решают перебраться из охваченных бедностью рисовых полей севера горного хребта Филиппин в финансовый конгломерат Метро-Манилы, где Оскар устраивается на работу водителем в транспортную компанию, занимающуюся перевозкой грузов в бронированных грузовиках. На новом месте Рамирез находит дружескую поддержку в лице старшего по званию Онга, который, как оказывается, ждал приезда кого-нибудь подобного Оскару уже достаточно долго…-Sample | IMDB | КиноПоиск-Тип релиза: HDRip [исх. BDRip 1080p]

    Формат видео: AVI-Видео: 544x288 (1.89:1), 24.000 fps, XviD build 50, 774 kbps avg, 0.21 bit/pixel
    Аудио: 48 kHz, MPEG Layer 3, 2 ch, 128.00 kbps avg [Russian_VO]-


    Complete name : D:\Мои релизы\Metro Manila_HDRip_[745]_RG_All_Films.avi
    Format : AVI
    Format/Info : Audio Video Interleave
    File size : 747 MiB
    Duration : 1h 54mn
    Overall bit rate : 912 Kbps
    Writing application : VirtualDubMod SURROUND (build 2560/release)
    Writing library : VirtualDubMod build 2560/release
    ID : 0
    Format : MPEG-4 Visual
    Format profile : Advanced Simple@L5
    Format settings, BVOP : Yes
    Format settings, QPel : No
    Format settings, GMC : No warppoints
    Format settings, Matrix : Custom
    Codec ID : XVID
    Codec ID/Hint : XviD
    Duration : 1h 54mn
    Bit rate : 775 Kbps
    Width : 544 pixels
    Height : 288 pixels
    Display aspect ratio : 1.889
    Frame rate : 24.000 fps
    Color space : YUV
    Chroma subsampling : 4:2:0
    Bit depth : 8 bits
    Scan type : Progressive
    Compression mode : Lossy
    Bits/(Pixel*Frame) : 0.206
    Stream size : 634 MiB (85%)
    Writing library : XviD 1.2.1 (UTC 2008-12-04)
    ID : 1
    Format : MPEG Audio
    Format version : Version 1
    Format profile : Layer 3
    Mode : Joint stereo
    Mode extension : MS Stereo
    Codec ID : 55
    Codec ID/Hint : MP3
    Duration : 1h 54mn
    Bit rate mode : Constant
    Bit rate : 128 Kbps
    Channel(s) : 2 channels
    Sampling rate : 48.0 KHz
    Compression mode : Lossy
    Stream size : 105 MiB (14%)
    Alignment : Aligned on interleaves
    Interleave, duration : 42 ms (1.00 video frame)
    Interleave, preload duration : 504 ms


    Download .torrent

    Download free and at maximum speed!

    How to Download? · What is a torrent? · Ratings and Limitations

    The site does not extend and does not store electronic(digital) versions of products, and only gives access to a reference catalogue created by users on torrent-files which contain only lists of the hash-sums, the earnest entreaty, with complaints(abuse) to access directly to the user. Files for an exchange on tracker are given by users of a site, and the administration does not bear the responsibility for their maintenance. The request to not fill in the files protected by copyrights, and also files of the illegal maintenance!

    [Profile] [PM]
    Display posts from previous:    
    Reply to topic

    The time now is: Today 10:20

    All times are GMT + 3 Hours

    You cannot post new topics in this forum
    You cannot reply to topics in this forum
    You cannot edit your posts in this forum
    You cannot delete your posts in this forum
    You cannot vote in polls in this forum
    You cannot attach files in this forum
    You cannot download files in this forum