BitTorrentTracker PerecTracker.org
BitTorrentTracker PerecTracker.org
    
Регистрация  ·  Вход
 
 · 
Забыли пароль?

  • 9 месяцев строгого режима / 9 mois ferme (Альбер Дюпонтель / Albert Dupontel) [2013, Франция, Комедия, BDRip-AVC] Dub (лицензия R5) + Sub Rus + Original Fre

    Ответить на тему
     
    Автор Сообщение

    Columb

    Создавать темы 15-Апр-2014 14:38

           

    [Цитировать]

    9 месяцев строгого режима / 9 mois ferme
    Страна: Франция
    Жанр: Комедия
    Год выпуска: 2013
    Продолжительность: 01:22:01
    Перевод: Профессиональный (дублированный) лицензия R5
    Cубтитры: Русские, английские
    Оригинальная аудиодорожка: французский
    Режиссер: Альбер Дюпонтель / Albert Dupontel
    В ролях: Сандрин Киберлэн, Альбер Дюпонтель, Николя Марье, Филипп Юшан, Филипп Дюкен, Кристиан Эк, Жиль Гастон-Дрейфус, Лорэ Кэлами, Иоланда Моро, Мишель Фо
    Описание: Ариана — судья, трудоголик и блондинка с высокими моральными принципами. Никаких мужчин. Никакой семьи. Никаких детей. Только работа, только закон. Кошмарная новость — и конец идиллии — она беременна! «Этого не может быть!» — кричит Ариана, начиная расследование самого невероятного дела в своей жизни!

    Автор рипа: potroks
    Качество видео: BDRip-AVC / 9.Mois.Ferme.2013.Blu-Ray.REMUX.1080p
    Формат видео: MKV
    Видео: х.264, 1032x432 (2,40:1), 23,976 fps, 1654 Кbps, 0.155 bit/pixel
    Аудио: 48 kHz, AC3 Dolby Digital, 3/2 (L,C,R,l,r) + LFE ch, 448.00 kbps | RUS
    Аудио 2: 48 kHz, AC3 Dolby Digital, 3/2 (L,C,R,l,r) + LFE ch, 448.00 kbps | FRE

    MediaInfo

    Общее
    Уникальный идентификатор : 236201822702004016011403359516705882131 (0xB1B2D0FABEB15205BCD1A1EC35530013)
    Полное имя : C:\Users\к\Desktop\фильмы\кино\9.Mesyatcev.Strogovo.Rezhima.2013.DUAL.BDRip.x264.mkv
    Формат : Matroska
    Версия формата : Version 4 / Version 2
    Размер файла : 1,46 Гбайт
    Продолжительность : 1 ч. 22 м.
    Общий поток : 2552 Кбит/сек
    Дата кодирования : UTC 2014-04-12 18:12:08
    Программа кодирования : mkvmerge v5.9.0 ('On The Loose') built on Dec 15 2012 16:39:58
    Библиотека кодирования : libebml v1.3.0 + libmatroska v1.4.0
    Видео
    Идентификатор : 1
    Формат : AVC
    Формат/Информация : Advanced Video Codec
    Профиль формата : High@L4.1
    Параметр CABAC формата : Да
    Параметр ReFrames формата : 10 кадров
    Идентификатор кодека : V_MPEG4/ISO/AVC
    Продолжительность : 1 ч. 22 м.
    Битрейт : 1654 Кбит/сек
    Ширина : 1032 пикселя
    Высота : 432 пикселя
    Соотношение сторон : 2,40:1
    Режим частоты кадров : Постоянный
    Частота кадров : 23,976 кадра/сек
    Цветовое пространство : YUV
    Субдискретизация насыщенности : 4:2:0
    Битовая глубина : 8 бит
    Тип развёртки : Прогрессивная
    Бит/(Пиксели*Кадры) : 0.155
    Размер потока : 942 Мбайт (63%)
    Заголовок : 9 mois ferme
    Библиотека кодирования : x264 core 130 r2273 b3065e6
    Настройки программы : cabac=1 / ref=10 / deblock=1:-2:-2 / analyse=0x3:0x133 / me=umh / subme=11 / psy=1 / psy_rd=1.03:0.00 / mixed_ref=1 / me_range=32 / chroma_me=1 / trellis=2 / 8x8dct=1 / cqm=0 / deadzone=21,11 / fast_pskip=0 / chroma_qp_offset=-2 / threads=9 / lookahead_threads=6 / sliced_threads=0 / nr=0 / decimate=0 / interlaced=0 / bluray_compat=0 / constrained_intra=0 / bframes=11 / b_pyramid=2 / b_adapt=2 / b_bias=0 / direct=3 / weightb=1 / open_gop=0 / weightp=2 / keyint=250 / keyint_min=23 / scenecut=40 / intra_refresh=0 / rc_lookahead=60 / rc=2pass / mbtree=0 / bitrate=1654 / ratetol=1.0 / qcomp=0.70 / qpmin=0 / qpmax=69 / qpstep=4 / cplxblur=20.0 / qblur=0.5 / vbv_maxrate=20000 / vbv_bufsize=20000 / nal_hrd=none / ip_ratio=1.35 / pb_ratio=1.25 / aq=1:0.80
    Язык : French
    Default : Да
    Forced : Нет
    Аудио #1
    Идентификатор : 2
    Формат : AC-3
    Формат/Информация : Audio Coding 3
    Расширение режима : CM (complete main)
    Параметр Endianness формата : Big
    Идентификатор кодека : A_AC3
    Продолжительность : 1 ч. 22 м.
    Вид битрейта : Постоянный
    Битрейт : 448 Кбит/сек
    Каналы : 6 каналов
    Расположение каналов : Front: L C R, Side: L R, LFE
    Частота : 48,0 КГц
    Битовая глубина : 16 бит
    Метод сжатия : С потерями
    Размер потока : 263 Мбайт (18%)
    Заголовок : Dub | DD 5.1 @ 448 kbps - R5
    Язык : Russian
    Default : Да
    Forced : Да
    Аудио #2
    Идентификатор : 3
    Формат : AC-3
    Формат/Информация : Audio Coding 3
    Расширение режима : CM (complete main)
    Параметр Endianness формата : Big
    Идентификатор кодека : A_AC3
    Продолжительность : 1 ч. 22 м.
    Вид битрейта : Постоянный
    Битрейт : 448 Кбит/сек
    Каналы : 6 каналов
    Расположение каналов : Front: L C R, Side: L R, LFE
    Частота : 48,0 КГц
    Битовая глубина : 16 бит
    Метод сжатия : С потерями
    Размер потока : 263 Мбайт (18%)
    Заголовок : Original | DD 5.1 @ 448 kbps
    Язык : French
    Default : Нет
    Forced : Нет
    Текст #1
    Идентификатор : 4
    Формат : UTF-8
    Идентификатор кодека : S_TEXT/UTF8
    Идентификатор кодека/Информация : UTF-8 Plain Text
    Язык : Russian
    Default : Нет
    Forced : Нет
    Текст #2
    Идентификатор : 5
    Формат : UTF-8
    Идентификатор кодека : S_TEXT/UTF8
    Идентификатор кодека/Информация : UTF-8 Plain Text
    Язык : English
    Default : Нет
    Forced : Нет
    Меню
    00:00:00.000 : fr:Chapitre 1
    00:06:17.168 : fr:Chapitre 2
    00:15:21.838 : fr:Chapitre 3
    00:20:28.352 : fr:Chapitre 4
    00:24:25.547 : fr:Chapitre 5
    00:30:11.226 : fr:Chapitre 6
    00:39:57.145 : fr:Chapitre 7
    00:46:25.366 : fr:Chapitre 8
    00:58:19.705 : fr:Chapitre 9
    01:05:30.844 : fr:Chapitre 10
    01:14:11.530 : fr:Chapitre 11
    01:18:04.471 : fr:Chapitre 12

    Скриншоты

    Скачать .torrent

    Скачать торрент-файл бесплатно и на максимальной скорости!

    Как скачивать? · Что такое торрент? · Рейтинг и ограничения

    !ВНИМАНИЕ!
    Сайт не распространяет и не хранит электронные версии произведений, а занимается лишь лишь предоставлением доступа к создаваемому пользователями каталогу ссылок на торрент-файлы, которые содержат только списки хеш-сумм, убедительная просьба с жалобами обращаться напрямую к пользователю. Файлы для обмена на трекере предоставлены пользователями сайта, и администрация не несёт ответственности за их содержание. Просьба не заливать файлы, защищенные авторскими правами, а также файлы нелегального содержания!

    [Профиль] [ЛС]
    Показать сообщения:    
    Ответить на тему

    Текущее время: Сегодня, в 10:42

    Часовой пояс: GMT + 2



    Вы не можете начинать темы
    Вы не можете отвечать на сообщения
    Вы не можете редактировать свои сообщения
    Вы не можете удалять свои сообщения
    Вы не можете голосовать в опросах
    Вы не можете прикреплять файлы к сообщениям
    Вы не можете скачивать файлы