BitTorrentTracker PerecTracker.org
BitTorrentTracker PerecTracker.org
    
Регистрация  ·  Вход
 
 · 
Забыли пароль?

  • Мистер Пип / Mr. Pip (Эндрю Адамсон / Andrew Ralph Adamson) [2012, Папуа - Новая Гвинея, Австралия, Новая Зеландия, Драма, военный, DVDRip] MVO (Mystery Film) + Sub Rus + Original Eng

    Ответить на тему
     
    Автор Сообщение

    Columb

    Создавать темы 15-Апр-2014 14:37

           

    [Цитировать]


    Мистер Пип / Mr. Pip
    -Страна: Папуа - Новая Гвинея, Австралия, Новая Зеландия
    Жанр: Драма, военный
    Год выпуска: 2012
    Продолжительность: 01:55:27
    Перевод: Любительский (многоголосый закадровый) - Mystery Film в сотрудничестве с COWABUNGA STUDIO
    Cубтитры: русские [notabenoid]
    Перевод субтитров: Fryoylajn, gallina, n_a_u, kyrkela, nedolga, la_sintez
    Оригинальная аудиодорожка: английский
    -Режиссёр: Эндрю Адамсон / Andrew Ralph Adamson
    В ролях: Хью Лори, Экзанья Матси, Хилсвиль Джоэль, Эка Дарвиль, Флоренс Корокоро, Кэрри Фокс и другие.-Действие фильма происходит в 1990-х годах во время гражданской войны на острове Бугенвиль в Папуа-Новой Гвинее. Томас Уоттс - единственный белый человек, оставшийся на блокированном правительственными войсками острове, читает детям в школе роман Чарльза Диккенса "Большие надежды". 14-летняя Матильда погружается в мир романа, находит утешение, вдохновение и надежду, в то время как ее собственный мир рушится на глазах. Правительственная армия, посланная уничтожить местных повстанцев, все ближе к деревне. Матильда пишет на песке слово «Пип». Это простое действие приводит к страшным последствиям.-Качество видео: DVDRip
    Формат видео: AVI
    Видео: XviD, 720x304 (2.35:1), 23.976 fps, 1 302 Kbps, 0.248 bit/pixel
    Аудио: AC-3, 48.0 KHz, 2 channels, 192 Kbps [MVO]
    Аудио 2: AC-3, 48.0 KHz, 6 channels, 384 Kbps [ENG]
    Формат субтитров: softsub (SRT)

    MediaInfo

    Format : AVI
    Format/Info : Audio Video Interleave
    File size : 1.53 GiB
    Duration : 1h 55mn
    Overall bit rate : 1 891 Kbps
    Writing application : VirtualDubMod 1.5.10.2 (build 2540/release)
    Writing library : VirtualDubMod build 2540/release
    Video
    ID : 0
    Format : MPEG-4 Visual
    Format profile : Advanced Simple@L5
    Format settings, BVOP : 2
    Format settings, QPel : No
    Format settings, GMC : No warppoints
    Format settings, Matrix : Default (H.263)
    Codec ID : XVID
    Codec ID/Hint : XviD
    Duration : 1h 55mn
    Bit rate : 1 302 Kbps
    Width : 720 pixels
    Height : 304 pixels
    Display aspect ratio : 2.35:1
    Frame rate : 23.976 fps
    Color space : YUV
    Chroma subsampling : 4:2:0
    Bit depth : 8 bits
    Scan type : Progressive
    Compression mode : Lossy
    Bits/(Pixel*Frame) : 0.248
    Stream size : 1.05 GiB (69%)
    Writing library : XviD 1.2.1 (UTC 2008-12-04)
    Audio #1
    ID : 1
    Format : AC-3
    Format/Info : Audio Coding 3
    Mode extension : CM (complete main)
    Codec ID : 2000
    Duration : 1h 55mn
    Bit rate mode : Constant
    Bit rate : 192 Kbps
    Channel(s) : 2 channels
    Channel positions : Front: L R
    Sampling rate : 48.0 KHz
    Bit depth : 16 bits
    Compression mode : Lossy
    Stream size : 159 MiB (10%)
    Alignment : Aligned on interleaves
    Interleave, duration : 42 ms (1.00 video frame)
    Interleave, preload duration : 512 ms
    Audio #2
    ID : 2
    Format : AC-3
    Format/Info : Audio Coding 3
    Mode extension : CM (complete main)
    Codec ID : 2000
    Duration : 1h 55mn
    Bit rate mode : Constant
    Bit rate : 384 Kbps
    Channel(s) : 6 channels
    Channel positions : Front: L C R, Side: L R, LFE
    Sampling rate : 48.0 KHz
    Bit depth : 16 bits
    Compression mode : Lossy
    Stream size : 317 MiB (20%)
    Alignment : Split accross interleaves
    Interleave, duration : 42 ms (1.00 video frame)
    Interleave, preload duration : 500 ms

    Скриншот с названием фильма

    Скриншоты

    Скачать .torrent

    Скачать торрент-файл бесплатно и на максимальной скорости!

    Как скачивать? · Что такое торрент? · Рейтинг и ограничения

    !ВНИМАНИЕ!
    Сайт не распространяет и не хранит электронные версии произведений, а занимается лишь лишь предоставлением доступа к создаваемому пользователями каталогу ссылок на торрент-файлы, которые содержат только списки хеш-сумм, убедительная просьба с жалобами обращаться напрямую к пользователю. Файлы для обмена на трекере предоставлены пользователями сайта, и администрация не несёт ответственности за их содержание. Просьба не заливать файлы, защищенные авторскими правами, а также файлы нелегального содержания!

    [Профиль] [ЛС]
    Показать сообщения:    
    Ответить на тему

    Текущее время: Сегодня, в 02:01

    Часовой пояс: GMT + 2



    Вы не можете начинать темы
    Вы не можете отвечать на сообщения
    Вы не можете редактировать свои сообщения
    Вы не можете удалять свои сообщения
    Вы не можете голосовать в опросах
    Вы не можете прикреплять файлы к сообщениям
    Вы не можете скачивать файлы