BitTorrentTracker PerecTracker.org
BitTorrentTracker PerecTracker.org
    
Регистрация  ·  Вход
 
 · 
Забыли пароль?

  • Иммигрантка / Роковая страсть / The Immigrant (Джеймс Грэй / James Gray) [2013, США, Драма, мелодрама, BDRip-AVC] VO (R.A.I.M) + Sub (Rus. Eng)

    Ответить на тему
     
    Автор Сообщение

    Columb

    Создавать темы 15-Апр-2014 14:36

           

    [Цитировать]

    Иммигрантка / Роковая страсть / The Immigrant
    Страна: США
    Жанр: Драма, мелодрама
    Год выпуска: 2013
    Продолжительность: 01:57:45
    Перевод: Одноголосый закадровый R.A.I.M
    Cубтитры: Русские (полные), английские (форсированные).
    Режиссер: Джеймс Грэй / James Gray
    В ролях: Марион Котийяр, Хоакин Феникс, Джереми Реннер, Гленн Флешлер, Анджела Сарафян, Дагмара Доминчик, Гэбриел Раш, ДиДи Люкс, Илья Волох, Энтони Короне
    Описание: 1921 г. Эва с сестрой Магдой покидают родную Польшу в поисках Земли обетованной, которой им представляется Нью-Йорк. По прибытии Магду, заболевшую туберкулезом, помещают в карантин. Одинокая и растерянная Эва попадает в сети бесстыдного сутенера Бруно. Чтобы спасти сестру она готова на все жертвы и соглашается стать проституткой. Появление иллюзиониста Орландо, двоюродного брата Бруно, возвращает девушке уверенность и надежду на лучшие дни. Но она забыла о ревности Бруно…

    Качество видео: BDRip-AVC [ The Immigrant 2013 1080p BluRay FRA AVC DTS-HD MA 5.1-WiHD]
    Формат видео: MKV
    Видео: MPEG-4 AVC, 1500 Кбит/с, 1024x426, 23.976 кадр/с
    Аудио: 48 kHz, AC3 Dolby Digital, 2/0 (L,R), ~192.00 kbps avg |R.A.I.M|

    MediaInfo

    Format : Matroska
    Format version : Version 4 / Version 2
    File size : 1.76 GiB
    Duration : 1h 57mn
    Overall bit rate : 2 139 Kbps
    Encoded date : UTC 2014-04-14 10:16:54
    Writing application : mkvmerge v6.8.0 ('Theme for Great Cities') 64bit built on Mar 2 2014 21:34:26
    Writing library : libebml v1.3.0 + libmatroska v1.4.1
    Video
    ID : 1
    Format : AVC
    Format/Info : Advanced Video Codec
    Format profile : High@L4.1
    Format settings, CABAC : Yes
    Format settings, ReFrames : 12 frames
    Codec ID : V_MPEG4/ISO/AVC
    Duration : 1h 57mn
    Bit rate : 1 500 Kbps
    Width : 1 024 pixels
    Height : 426 pixels
    Display aspect ratio : 2.40:1
    Frame rate : 23.976 fps
    Color space : YUV
    Chroma subsampling : 4:2:0
    Bit depth : 8 bits
    Scan type : Progressive
    Bits/(Pixel*Frame) : 0.143
    Stream size : 1.20 GiB (68%)
    Writing library : x264 core 142 r2409+42 04be48a tMod [8-bit@4:2:0 X86_64]
    Encoding settings : cabac=1 / ref=12 / deblock=1:-2:-2 / analyse=0x3:0x133 / me=umh / subme=11 / psy=1 / fade_compensate=0.00 / psy_rd=1.00:0.20 / mixed_ref=1 / me_range=48 / chroma_me=1 / trellis=2 / 8x8dct=1 / cqm=0 / deadzone=21,11 / fast_pskip=0 / chroma_qp_offset=-3 / threads=6 / lookahead_threads=1 / sliced_threads=0 / nr=0 / decimate=0 / interlaced=0 / bluray_compat=0 / constrained_intra=0 / fgo=0 / bframes=11 / b_pyramid=2 / b_adapt=2 / b_bias=0 / direct=3 / weightb=1 / open_gop=0 / weightp=2 / keyint=240 / keyint_min=23 / scenecut=40 / intra_refresh=0 / rc=2pass / mbtree=0 / bitrate=1500 / ratetol=1.0 / qcomp=0.60 / qpmin=0:0:0 / qpmax=69:69:69 / qpstep=4 / cplxblur=20.0 / qblur=0.5 / ip_ratio=1.40 / pb_ratio=1.30 / aq=2:1.00 / aq-sensitivity=10.00 / aq-factor=1.00:1.00:1.00 / aq2=0 / aq3=0
    Language : English
    Audio #1
    ID : 2
    Format : AC-3
    Format/Info : Audio Coding 3
    Mode extension : CM (complete main)
    Codec ID : A_AC3
    Duration : 1h 57mn
    Bit rate mode : Constant
    Bit rate : 192 Kbps
    Channel(s) : 2 channels
    Channel positions : Front: L R
    Sampling rate : 44.1 KHz
    Bit depth : 16 bits
    Compression mode : Lossy
    Stream size : 161 MiB (9%)
    Title : Любительский одноголосый (R.A.I.M)
    Language : Russian
    Text #1
    ID : 4
    Format : UTF-8
    Codec ID : S_TEXT/UTF8
    Codec ID/Info : UTF-8 Plain Text
    Title : Full
    Language : Russian
    Text #2
    ID : 5
    Format : UTF-8
    Codec ID : S_TEXT/UTF8
    Codec ID/Info : UTF-8 Plain Text
    Title : Forced
    Language : English
    Menu
    00:00:00.000 : en:00:00:00.000
    00:09:16.139 : en:00:09:16.139
    00:16:24.108 : en:00:16:24.108
    00:21:06.432 : en:00:21:06.432
    00:24:58.664 : en:00:24:58.664
    00:33:26.421 : en:00:33:26.421
    00:41:09.884 : en:00:41:09.884
    00:45:32.521 : en:00:45:32.521
    00:53:12.064 : en:00:53:12.064
    01:02:19.319 : en:01:02:19.319
    01:10:33.104 : en:01:10:33.104
    01:16:32.338 : en:01:16:32.338
    01:24:18.345 : en:01:24:18.345
    01:32:26.207 : en:01:32:26.207
    01:41:25.663 : en:01:41:25.663
    01:49:50.959 : en:01:49:50.959

    Скриншоты

    Скачать .torrent

    Скачать торрент-файл бесплатно и на максимальной скорости!

    Как скачивать? · Что такое торрент? · Рейтинг и ограничения

    !ВНИМАНИЕ!
    Сайт не распространяет и не хранит электронные версии произведений, а занимается лишь лишь предоставлением доступа к создаваемому пользователями каталогу ссылок на торрент-файлы, которые содержат только списки хеш-сумм, убедительная просьба с жалобами обращаться напрямую к пользователю. Файлы для обмена на трекере предоставлены пользователями сайта, и администрация не несёт ответственности за их содержание. Просьба не заливать файлы, защищенные авторскими правами, а также файлы нелегального содержания!

    [Профиль] [ЛС]
    Показать сообщения:    
    Ответить на тему

    Текущее время: Сегодня, в 12:03

    Часовой пояс: GMT + 2



    Вы не можете начинать темы
    Вы не можете отвечать на сообщения
    Вы не можете редактировать свои сообщения
    Вы не можете удалять свои сообщения
    Вы не можете голосовать в опросах
    Вы не можете прикреплять файлы к сообщениям
    Вы не можете скачивать файлы