BitTorrentTracker PerecTracker.org
BitTorrentTracker PerecTracker.org
    
Регистрация  ·  Вход
 
 · 
Забыли пароль?

  • Как завести ребенка / Детородные / The Babymakers (Джей Чандрашекхар / Jay Chandrasekhar) [2012, США, комедия, HDRip] Dub (ТНТ)

    Ответить на тему
     
    Автор Сообщение

    Columb

    Создавать темы 15-Апр-2014 14:33

           

    [Цитировать]

    -Как завести ребенка / Детородные / The Babymakers-
    Страна: США
    Жанр: комедия
    Год выпуска: 2012
    Продолжительность: 01:35:34
    Перевод: Профессиональный (дублированный) [ТНТ]
    Cубтитры: нет
    Режиссер: Джей Чандрашекхар / Jay Chandrasekhar
    В ролях: Пол Шнайдер, Оливия Манн, Кевин Хеффернан, Джей Чандрашекхар, Норин ДеВулф, Аиша Тайлер, Хэйес МакАртур, Вуд Харрис, Дези Лайдик, Хелена Мэттссон
    Описание: Томми и Одри уже несколько лет в браке, а детишек все нет. Врачи признают сперму Томми не годной для оплодотворения. Но так было не всегда, три года назад он обращался в банк спермы, чтобы заработать чуть денег на покупку обручального кольца для Одри. При помощи своих безбашенных друзей Томми разыскивает последний образец своей «работающей» спермы и решает выкрасть его из медицинского учреждения.
    Качество видео: HDRip
    Формат видео: AVI
    Видео: XviD, 1846 Kb/s, 23,976fps, 720x304
    Аудио: AC3, 192 kb/s, 48,0 КГц, 2 ch
    --

    MediaInfo

    Общее
    Полное имя : E:\Раздачи\Detorodnye.2012.D.HDRip.1400Mb.avi
    Формат : AVI
    Формат/Информация : Audio Video Interleave
    Размер файла : 1,37 Гбайт
    Продолжительность : 1 ч. 35 м.
    Общий поток : 2047 Кбит/сек
    Программа кодирования : VirtualDubMod 1.5.10.2 (build 2540/release)
    Библиотека кодирования : VirtualDubMod build 2540/release
    Видео
    Идентификатор : 0
    Формат : MPEG-4 Visual
    Профиль формата : Advanced Simple@L5
    Параметр BVOP формата : 2
    Параметр QPel формата : Нет
    Параметр GMC формата : Без точки перехода
    Параметр матрицы формата : Default (MPEG)
    Идентификатор кодека : XVID
    Идентификатор кодека/Подсказка : XviD
    Продолжительность : 1 ч. 35 м.
    Битрейт : 1846 Кбит/сек
    Ширина : 720 пикселей
    Высота : 304 пикселя
    Соотношение сторон : 2,35:1
    Частота кадров : 23,976 кадра/сек
    Цветовое пространство : YUV
    Субдискретизация насыщенности : 4:2:0
    Битовая глубина : 8 бит
    Тип развёртки : Прогрессивная
    Метод сжатия : С потерями
    Бит/(Пиксели*Кадры) : 0.352
    Размер потока : 1,23 Гбайт (90%)
    Библиотека кодирования : XviD 1.2.1 (UTC 2008-12-04)
    Аудио
    Идентификатор : 1
    Формат : AC-3
    Формат/Информация : Audio Coding 3
    Расширение режима : CM (complete main)
    Параметр Endianness формата : Big
    Идентификатор кодека : 2000
    Продолжительность : 1 ч. 35 м.
    Вид битрейта : Постоянный
    Битрейт : 192 Кбит/сек
    Каналы : 2 канала
    Расположение каналов : Front: L R
    Частота : 48,0 КГц
    Битовая глубина : 16 бит
    Метод сжатия : С потерями
    Размер потока : 131 Мбайт (9%)
    Выравнивание : Разделение по промежуткам
    Продолжительность промежутка : 42 мс. (1,00 видеокадр)
    Время предзагрузки промежутка : 500 мс.

    Скриншот c названием фильма

    Скриншоты


    --
    Скачать .torrent

    Скачать торрент-файл бесплатно и на максимальной скорости!

    Как скачивать? · Что такое торрент? · Рейтинг и ограничения

    !ВНИМАНИЕ!
    Сайт не распространяет и не хранит электронные версии произведений, а занимается лишь лишь предоставлением доступа к создаваемому пользователями каталогу ссылок на торрент-файлы, которые содержат только списки хеш-сумм, убедительная просьба с жалобами обращаться напрямую к пользователю. Файлы для обмена на трекере предоставлены пользователями сайта, и администрация не несёт ответственности за их содержание. Просьба не заливать файлы, защищенные авторскими правами, а также файлы нелегального содержания!

    [Профиль] [ЛС]
    Показать сообщения:    
    Ответить на тему

    Текущее время: Сегодня, в 18:10

    Часовой пояс: GMT + 2



    Вы не можете начинать темы
    Вы не можете отвечать на сообщения
    Вы не можете редактировать свои сообщения
    Вы не можете удалять свои сообщения
    Вы не можете голосовать в опросах
    Вы не можете прикреплять файлы к сообщениям
    Вы не можете скачивать файлы