BitTorrentTracker PerecTracker.org
BitTorrentTracker PerecTracker.org
    
Регистрация  ·  Вход
 
 · 
Забыли пароль?

  • Железное поколение / Generation Iron (Влад Юдин / Vlad Yudin) [2013, Бодибилдинг, Документальный, WEB-DL 720p, RU/EN] Do4a

    Ответить на тему
     
    Автор Сообщение

    Columb

    Создавать темы 14-Апр-2014 13:46

           

    [Цитировать]

    Железное поколение / Generation Iron
    Вид спорта: Бодибилдинг
    Дата/Год выпуска: 2013
    Страна: США
    Жанр: Документальный, Спорт
    Продолжительность: 01:47:08
    Перевод: Любительский двухголосый (Do4a)
    Режиссер: Влад Юдин
    В ролях: Микки Рурк, Фил Хит, Кай Грин, Бренч Уоррен, Дэннис Вульф, Виктор Мартинес, Арнольд Шварценеггер, Майкл Джей Уайт, Лу Ферриньо, Баста Раймс, Джэй Катлер, Майк Кац
    Описание: Документальный фильм, который рассказывает о том, как тренируются культуристы, готовясь к конкурсу «Мистер Олимпия».
    Качество: WEB-DL
    Формат видео: MKV
    Видео: H.264, 1280x716, 23.976fps, 4 144 Kbps
    Аудио 1: RUS MP3, 48kHz, stereo, 256 Kbps
    Аудио 2: ENG AC3, 48kHz, 6ch, 384 Kbps

    M.I.

    General
    Unique ID : 220164287435653458342914745236928883889 (0xA5A21971575CAEA8BD732B5BD9F86CB1)
    Complete name : E:\Reliz\Generation Iron.mkv
    Format : Matroska
    Format version : Version 4 / Version 2
    File size : 3.65 GiB
    Duration : 1h 47mn
    Overall bit rate : 4 881 Kbps
    Encoded date : UTC 2014-04-13 18:28:58
    Writing application : mkvmerge v6.8.0 ('Theme for Great Cities') 64bit built on Mar 2 2014 21:34:26
    Writing library : libebml v1.3.0 + libmatroska v1.4.1
    Video
    ID : 1
    Format : AVC
    Format/Info : Advanced Video Codec
    Format profile : High@L3.1
    Format settings, CABAC : No
    Format settings, ReFrames : 2 frames
    Codec ID : V_MPEG4/ISO/AVC
    Duration : 1h 47mn
    Bit rate : 4 144 Kbps
    Width : 1 280 pixels
    Height : 716 pixels
    Display aspect ratio : 16:9
    Frame rate mode : Constant
    Frame rate : 23.976 fps
    Color space : YUV
    Chroma subsampling : 4:2:0
    Bit depth : 8 bits
    Scan type : Progressive
    Bits/(Pixel*Frame) : 0.189
    Stream size : 3.10 GiB (85%)
    Language : English
    Default : Yes
    Forced : No
    Color primaries : BT.709
    Transfer characteristics : BT.709
    Matrix coefficients : BT.709
    Audio #1
    ID : 2
    Format : MPEG Audio
    Format version : Version 1
    Format profile : Layer 3
    Codec ID : A_MPEG/L3
    Codec ID/Hint : MP3
    Duration : 1h 47mn
    Bit rate mode : Constant
    Bit rate : 256 Kbps
    Channel(s) : 2 channels
    Sampling rate : 48.0 KHz
    Compression mode : Lossy
    Stream size : 196 MiB (5%)
    Language : Russian
    Default : Yes
    Forced : No
    Audio #2
    ID : 3
    Format : AC-3
    Format/Info : Audio Coding 3
    Mode extension : CM (complete main)
    Format settings, Endianness : Big
    Codec ID : A_AC3
    Duration : 1h 47mn
    Bit rate mode : Constant
    Bit rate : 384 Kbps
    Channel(s) : 6 channels
    Channel positions : Front: L C R, Side: L R, LFE
    Sampling rate : 48.0 KHz
    Bit depth : 16 bits
    Compression mode : Lossy
    Stream size : 294 MiB (8%)
    Language : English
    Default : No
    Forced : No
    Menu
    00:00:00.000 : en:Chapter 1
    00:06:51.000 : en:Chapter 2
    00:15:32.000 : en:Chapter 3
    00:26:00.000 : en:Chapter 4
    00:35:25.000 : en:Chapter 5
    00:44:17.000 : en:Chapter 6
    00:52:49.000 : en:Chapter 7
    01:00:53.000 : en:Chapter 8
    01:08:14.000 : en:Chapter 9
    01:16:51.000 : en:Chapter 10
    01:26:13.000 : en:Chapter 11
    01:35:29.000 : en:Chapter 12
    01:42:36.000 : en:Chapter 13

    Скриншоты


    Скачать .torrent

    Скачать торрент-файл бесплатно и на максимальной скорости!

    Как скачивать? · Что такое торрент? · Рейтинг и ограничения

    !ВНИМАНИЕ!
    Сайт не распространяет и не хранит электронные версии произведений, а занимается лишь лишь предоставлением доступа к создаваемому пользователями каталогу ссылок на торрент-файлы, которые содержат только списки хеш-сумм, убедительная просьба с жалобами обращаться напрямую к пользователю. Файлы для обмена на трекере предоставлены пользователями сайта, и администрация не несёт ответственности за их содержание. Просьба не заливать файлы, защищенные авторскими правами, а также файлы нелегального содержания!

    [Профиль] [ЛС]
    Показать сообщения:    
    Ответить на тему

    Текущее время: Сегодня, в 05:12

    Часовой пояс: GMT + 2



    Вы не можете начинать темы
    Вы не можете отвечать на сообщения
    Вы не можете редактировать свои сообщения
    Вы не можете удалять свои сообщения
    Вы не можете голосовать в опросах
    Вы не можете прикреплять файлы к сообщениям
    Вы не можете скачивать файлы