BitTorrentTracker PerecTracker.org
BitTorrentTracker PerecTracker.org
    
Регистрация  ·  Вход
 
 · 
Забыли пароль?

  • World Touring Car Championship (WTCC) 2014 / Этап 01 / Квалификация / Eurosport HD [12.04.14, Автогонки, DVB-S2 Remux, 1080i, RU-ENG]

    Ответить на тему
     
    Автор Сообщение

    Columb

    Создавать темы 13-Апр-2014 07:40

           

    [Цитировать]

    World Touring Car Championship (WTCC) 2014 / Этап 01 / Eurosport HD
    Вид спорта: Автогонки
    Дата/Год выпуска: 12.04.14
    Язык комментариев: русский (Оксана Косаченко, Александр Кабановский), английский
    Автор записи: SashaR.
    Качество: DVB-S2 Remux
    Формат видео: TS
    Видео: AVC, 1920x1080, 16:9, 9 375 Kbps, 25 fps
    Аудио: MP2, 192 Kbps, 48.0 kHz, 2 channels
    Аудио: MP2, 192 Kbps, 48.0 kHz, 2 channels

    Media Info

    H:\Раздачи\WTCC Morocco\Квалификация.ts
    General #6
    ID : 6 (0x6)
    Complete name : H:\Раздачи\WTCC Morocco\Квалификация.ts
    Format : MPEG-TS
    File size : 5.01 GiB
    Duration : 1h 9mn
    Overall bit rate mode : Variable
    Overall bit rate : 10.3 Mbps
    Video #324
    ID : 324 (0x144)
    Menu ID : 12104 (0x2F48)
    Format : AVC
    Format/Info : Advanced Video Codec
    Format profile : High@L4.0
    Format settings, CABAC : Yes
    Format settings, ReFrames : 3 frames
    Codec ID : 27
    Duration : 1h 9mn
    Bit rate : 9 375 Kbps
    Width : 1 920 pixels
    Height : 1 080 pixels
    Display aspect ratio : 16:9
    Frame rate : 25.000 fps
    Standard : Component
    Color space : YUV
    Chroma subsampling : 4:2:0
    Bit depth : 8 bits
    Scan type : Interlaced
    Scan order : Top Field First
    Bits/(Pixel*Frame) : 0.181
    Stream size : 4.57 GiB (91%)
    Color primaries : BT.709
    Transfer characteristics : BT.709
    Matrix coefficients : BT.709
    Audio #404
    ID : 404 (0x194)
    Menu ID : 12104 (0x2F48)
    Format : MPEG Audio
    Format version : Version 1
    Format profile : Layer 2
    Codec ID : 4
    Duration : 1h 9mn
    Bit rate mode : Constant
    Bit rate : 192 Kbps
    Channel count : 2 channels
    Sampling rate : 48.0 KHz
    Compression mode : Lossy
    Delay relative to video : 45ms
    Stream size : 95.9 MiB (2%)
    Language : Russian
    Language, more info : Clean effects
    Audio #424
    ID : 424 (0x1A8)
    Menu ID : 12104 (0x2F48)
    Format : MPEG Audio
    Format version : Version 1
    Format profile : Layer 2
    Codec ID : 4
    Duration : 1h 9mn
    Bit rate mode : Constant
    Bit rate : 192 Kbps
    Channel count : 2 channels
    Sampling rate : 48.0 KHz
    Compression mode : Lossy
    Delay relative to video : 21ms
    Stream size : 95.9 MiB (2%)
    Language : English
    Language, more info : Clean effects

    Продолжительность

    Квалификация - 01:09:49

    Скриншоты

    Счёт/Итог

    Скачать .torrent

    Скачать торрент-файл бесплатно и на максимальной скорости!

    Как скачивать? · Что такое торрент? · Рейтинг и ограничения

    !ВНИМАНИЕ!
    Сайт не распространяет и не хранит электронные версии произведений, а занимается лишь лишь предоставлением доступа к создаваемому пользователями каталогу ссылок на торрент-файлы, которые содержат только списки хеш-сумм, убедительная просьба с жалобами обращаться напрямую к пользователю. Файлы для обмена на трекере предоставлены пользователями сайта, и администрация не несёт ответственности за их содержание. Просьба не заливать файлы, защищенные авторскими правами, а также файлы нелегального содержания!

    [Профиль] [ЛС]
    Показать сообщения:    
    Ответить на тему

    Текущее время: Сегодня, в 04:06

    Часовой пояс: GMT + 2



    Вы не можете начинать темы
    Вы не можете отвечать на сообщения
    Вы не можете редактировать свои сообщения
    Вы не можете удалять свои сообщения
    Вы не можете голосовать в опросах
    Вы не можете прикреплять файлы к сообщениям
    Вы не можете скачивать файлы