BitTorrentTracker PerecTracker.org
BitTorrentTracker PerecTracker.org
    
Регистрация  ·  Вход
 
 · 
Забыли пароль?

  • Кopоли тaнцпoла в 3Д / Bаttlе of thе Yеаr 3D (Бeнcон Ли / Bеnsоn Lеe) [2013, Музыкальный, Брейк-данс, BDrip-AVC] Half OverUnder / Вертикальная анаморфная стереопара

    Ответить на тему
     
    Автор Сообщение

    rechyn

    Создавать темы 12-Апр-2014 18:19

           

    [Цитировать]

    Короли танцпола
    Battle of the Year

    Год выпуска: 2013
    Страна: США (Screen Gems, Contrafilm)
    Жанр: Музыкальный, Брейк-данс
    Продолжительность: 01:49:42
    Переводы: Профессиональные дублированные Русский и Украинский
    Режиссер: Бенсон Ли / Benson Lee-Роли исполняли:
    .............
    Jason Blake - Джош Холлоуэй
    Dante Graham - Лас Алонсо
    Franklyn - Джош Пек
    Stacy - Кейти Лотц
    Rooster - Крис Браун
    Flipz - Иван «Флипз» Велез
    Do Knock - Джон «Ду Нок» Крус
    Rebel - Джесси «Каспер» Браун
    Kid - Дэвид Шрейбман
    Sniper - Саванди Уилсон
    -Описание: Фильм расскажет про подготовку би-боев, которые в конце года сразятся на финальном соревновании. Главные герои после поражения имеют не так много времени, чтобы подготовиться к встрече с лучшими би-боями мира, которые доминируют на играх уже 10 лет…-Премьера: 19 сентября 2013 (12 декабря 2013)
    Релиз на Blu-Ray (DVD) (Россия): 25 марта 2014
    Бюджет: $20 000 000
    Кассовые сборы: $16 549 477

    -

    Ошибки в фильме

    Когда Рустер с Анисом показывают новое движение, после кувырка в полете земли касается левая нога Рустера, и в этот момент он кричит от боли, но когда команда подбегает к нему, он хватается за правую ногу и в последующих сценах у него также загипсована правая нога.
    -Качество: BDRip (by Ash61)
    Контейнер: MKV
    Формат 3D: Half OverUnder / Вертикальная анаморфная стереопара
    Порядок ракурсов: левый ракурс первый
    Видео кодек: x264
    Аудио кодек: AC3-Видео: AVC / 23,976 fps / 1920х1080p / 10.4 Mbps
    Аудио 1: - Русский / AC3 / 48 KHz / 5.1 ch / 640 Kbps (Дубляж - BD 3D CEE)
    Аудио 2: - Украинский / AC3 / 48 KHz / 5.1 ch / 640 Kbps (Дубляж - BD 3D CEE)
    Аудио 3: - Английский / AC3 / 48 KHz / 5.1 ch / 640 Kbps (Original - BD 3D)
    Субтитры: (SRT)
    Субтитры Внешние (UTF-8):
    Субтитры 1: - Русские Форсированные (включены по умолчанию)
    Субтитры 2: - Русские Полные
    Субтитры 3: - Украинские Форсированные
    Субтитры 4: - English Forced
    Субтитры 5: - English Full
    Субтитры Вшитые (softsub):
    Субтитры 1: - Русские Форсированные (включены по умолчанию)
    Субтитры 2: - Украинские Форсированные
    Субтитры 3: - English Forced

    MediaInfo

    General
    Unique ID : 227070925450777206606940744129502129798 (0xAAD444FCCEBCC58597E283EF4BFA2E86)
    Complete name : E:\BattleOfTheYear(2013)3D-halfOU(Ash61)\BattleOfTheYear(2013)3D-halfOU(Ash61).mkv
    Format : Matroska
    Format version : Version 2
    File size : 9.63 GiB
    Duration : 1h 49mn
    Overall bit rate : 12.6 Mbps
    Movie name : Короли танцпола / Battle of the Year (2013) 3D
    Encoded date : UTC 2014-04-01 16:06:02
    Writing application : mkvmerge v5.8.0 ('No Sleep / Pillow') built on Sep 2 2012 15:37:04
    Writing library : libebml v1.2.3 + libmatroska v1.3.0
    Video
    ID : 1
    Format : AVC
    Format/Info : Advanced Video Codec
    Format profile : High@L4.1
    Format settings, CABAC : Yes
    Format settings, ReFrames : 4 frames
    Codec ID : V_MPEG4/ISO/AVC
    Duration : 1h 49mn
    Bit rate : 10.4 Mbps
    Width : 1 920 pixels
    Height : 1 080 pixels
    Display aspect ratio : 16:9
    Frame rate mode : Constant
    Frame rate : 23.976 fps
    Color space : YUV
    Chroma subsampling : 4:2:0
    Bit depth : 8 bits
    Scan type : Progressive
    Bits/(Pixel*Frame) : 0.209
    Stream size : 7.97 GiB (83%)
    Title : BDRip by Ash61
    Writing library : x264 core 129 r2245 bc13772
    Encoding settings : cabac=1 / ref=4 / deblock=1:-3:-3 / analyse=0x3:0x113 / me=umh / subme=10 / psy=1 / psy_rd=1.00:0.15 / mixed_ref=1 / me_range=32 / chroma_me=1 / trellis=2 / 8x8dct=1 / cqm=0 / deadzone=21,11 / fast_pskip=1 / chroma_qp_offset=-3 / threads=12 / lookahead_threads=2 / sliced_threads=0 / nr=0 / decimate=1 / interlaced=0 / bluray_compat=0 / constrained_intra=0 / bframes=8 / b_pyramid=2 / b_adapt=2 / b_bias=0 / direct=3 / weightb=1 / open_gop=0 / weightp=2 / keyint=250 / keyint_min=23 / scenecut=40 / intra_refresh=0 / rc_lookahead=60 / rc=crf / mbtree=1 / crf=17.0 / qcomp=0.70 / qpmin=0 / qpmax=69 / qpstep=4 / vbv_maxrate=40000 / vbv_bufsize=30000 / crf_max=0.0 / nal_hrd=none / frame-packing=4 / ip_ratio=1.40 / aq=1:0.70
    Language : English
    Default : Yes
    Forced : No
    Audio #1
    ID : 2
    Format : AC-3
    Format/Info : Audio Coding 3
    Mode extension : CM (complete main)
    Format settings, Endianness : Big
    Codec ID : A_AC3
    Duration : 1h 49mn
    Bit rate mode : Constant
    Bit rate : 640 Kbps
    Channel(s) : 6 channels
    Channel positions : Front: L C R, Side: L R, LFE
    Sampling rate : 48.0 KHz
    Bit depth : 16 bits
    Compression mode : Lossy
    Stream size : 502 MiB (5%)
    Title : Дубляж - BD 3D CEE
    Language : Russian
    Default : Yes
    Forced : No
    Audio #2
    ID : 3
    Format : AC-3
    Format/Info : Audio Coding 3
    Mode extension : CM (complete main)
    Format settings, Endianness : Big
    Codec ID : A_AC3
    Duration : 1h 49mn
    Bit rate mode : Constant
    Bit rate : 640 Kbps
    Channel(s) : 6 channels
    Channel positions : Front: L C R, Side: L R, LFE
    Sampling rate : 48.0 KHz
    Bit depth : 16 bits
    Compression mode : Lossy
    Stream size : 502 MiB (5%)
    Title : Дубляж - BD 3D CEE
    Language : Ukrainian
    Default : No
    Forced : No
    Audio #3
    ID : 4
    Format : AC-3
    Format/Info : Audio Coding 3
    Mode extension : CM (complete main)
    Format settings, Endianness : Big
    Codec ID : A_AC3
    Duration : 1h 49mn
    Bit rate mode : Constant
    Bit rate : 640 Kbps
    Channel(s) : 6 channels
    Channel positions : Front: L C R, Side: L R, LFE
    Sampling rate : 48.0 KHz
    Bit depth : 16 bits
    Compression mode : Lossy
    Stream size : 502 MiB (5%)
    Title : Original - BD 3D
    Language : English
    Default : No
    Forced : No
    Text #1
    ID : 5
    Format : UTF-8
    Codec ID : S_TEXT/UTF8
    Codec ID/Info : UTF-8 Plain Text
    Title : Форсированные (сделал Ash61 с iTunes)
    Language : Russian
    Default : Yes
    Forced : No
    Text #2
    ID : 6
    Format : UTF-8
    Codec ID : S_TEXT/UTF8
    Codec ID/Info : UTF-8 Plain Text
    Title : Форсированные - BD 3D CEE
    Language : Ukrainian
    Default : No
    Forced : No
    Text #3
    ID : 7
    Format : UTF-8
    Codec ID : S_TEXT/UTF8
    Codec ID/Info : UTF-8 Plain Text
    Title : Forced - iTunes
    Language : English
    Default : No
    Forced : No
    Menu
    00:00:00.000 : :1
    00:06:29.055 : :2
    00:14:23.988 : :3
    00:21:34.376 : :4
    00:27:32.150 : :5
    00:35:15.905 : :6
    00:40:19.834 : :7
    00:47:32.016 : :8
    00:55:42.089 : :9
    01:00:01.056 : :10
    01:04:58.686 : :11
    01:12:07.073 : :12
    01:21:09.448 : :13
    01:29:05.757 : :14
    01:33:02.368 : :15
    01:39:49.442 : :16

    Скриншоты

    Для оценки 3Д - Анимированные скрины















    Скачать .torrent

    Скачать торрент-файл бесплатно и на максимальной скорости!

    Как скачивать? · Что такое торрент? · Рейтинг и ограничения

    !ВНИМАНИЕ!
    Сайт не распространяет и не хранит электронные версии произведений, а занимается лишь лишь предоставлением доступа к создаваемому пользователями каталогу ссылок на торрент-файлы, которые содержат только списки хеш-сумм, убедительная просьба с жалобами обращаться напрямую к пользователю. Файлы для обмена на трекере предоставлены пользователями сайта, и администрация не несёт ответственности за их содержание. Просьба не заливать файлы, защищенные авторскими правами, а также файлы нелегального содержания!


    _________________
    [Профиль] [ЛС]
    Показать сообщения:    
    Ответить на тему

    Текущее время: Сегодня, в 16:12

    Часовой пояс: GMT + 2



    Вы не можете начинать темы
    Вы не можете отвечать на сообщения
    Вы не можете редактировать свои сообщения
    Вы не можете удалять свои сообщения
    Вы не можете голосовать в опросах
    Вы не можете прикреплять файлы к сообщениям
    Вы не можете скачивать файлы