BitTorrentTracker PerecTracker.org
BitTorrentTracker PerecTracker.org
    
Регистрация  ·  Вход
 
 · 
Забыли пароль?

  • Возникший из дождя / Смертоносный дождь / Out of the Rain (Гари Виник / Gary Winick) [1991, США, Триллер, Драма, Криминал, VHSRip] AVO (Ю.Живов)

    Ответить на тему
     
    Автор Сообщение

    Columb

    Создавать темы 04-Апр-2014 06:22

           

    [Цитировать]

    Возникший из дождя / Смертоносный дождь / Out of the Rain
    Страна: США
    Жанр: Триллер, Драма, Криминал
    Год выпуска: 1991
    Продолжительность: 01:28:50
    Перевод: Авторский (одноголосый закадровый) Ю.Живов
    Cубтитры: нет
    Режиссер: Гари Виник / Gary Winick
    В ролях: Бриджет Фонда /Bridget Fonda/, Майкл О'Кифи /Michael O'Keefe/, Джон И. О'Кифи /John E. O'Keefe/, Джон Зейц /John Seitz/, Джорджина Холл /Georgine Hall/, Эл Шэннон /Al Shannon/, Майкл Мэнтелл /Michael Mantell/, Кэтлин Чэлфэнт /Kathleen Chalfant/, Мэри Мара /Mary Mara/
    Описание: Какие тайны могут скрываться в "тихом омуте" провинциального американского городка? Семейные? Любовные? Производственные? Нет, нет и нет. Ничто не удержишь в неизвестности, если ты живешь в глуши, население которой - пара десятков человек. Но тайны мафии - это совсем другое дело. Особенно, если тайны наркомафии! Поэтому, приехав в родной городок, спортсмен-чемпион Фрэнк очень удивился тому, что убийца его брата Джимми еще не найден. И перестал удивляться, только когда стал случайным свидетелем одного конфликта на фабрике, где работал отец братьев. А уж, пообщавшись с дочерью местного шерифа, Фрэнк расставил все точки над "i"... Временами - триллер, временами - мелодрама, временами - детектив, но чаще - просто психологическая драма с криминальным сюжетом. (alenavova)
    2. Экранизация пьесы Шема Биттермэна. Фрэнк, спортсмен-профессионал, возвращается после долгих лет разлуки в родной провинциальный городок на похороны брата. Встречает старых друзей, начинает расспрашивать, и со временем выясняется, что его брат Джимми был убит наркомафией. Фрэнк начинает заниматься поисками убийцы. Неплохой детективный триллер с хорошей любовной линией. (Иванов М.)
    Доп. информация: ФИЛЬМ ВПЕРВЫЕ НА ТРЕКЕРЕ.
    Оцифровка VHS (личный архив) и получение VHSRip alenavova
    Качество видео: VHSRip
    Формат видео: AVI
    Видео: 640x480 (1.33:1), 25 fps, XviD build 50 ~2099 kbps avg, 0.27 bit/pixel
    Аудио: 48 kHz, AC3 Dolby Digital, 2/0 (L,R) ch, ~192 kbps

    MediaInfo

    Возникший из дождя - Out of the Rain [by alenavova].avi
    Format : AVI
    Format/Info : Audio Video Interleave
    File size : 1.43 GiB
    Duration : 1h 28mn
    Overall bit rate : 2 302 Kbps
    Movie name : Возникший из дождя - Out of the Rain [by alenavova]
    Director : Rip by alenavova
    Writing application : VirtualDubMod 1.5.10.3 | www.virtualdub-fr.org || (build 2550/release)
    Copyright : Edich2
    Comment : RuTracker.org
    Video
    ID : 0
    Format : MPEG-4 Visual
    Format profile : Advanced Simple@L5
    Format settings, BVOP : 2
    Format settings, QPel : No
    Format settings, GMC : No warppoints
    Format settings, Matrix : Custom
    Codec ID : XVID
    Codec ID/Hint : XviD
    Duration : 1h 28mn
    Bit rate : 2 100 Kbps
    Width : 640 pixels
    Height : 480 pixels
    Display aspect ratio : 4:3
    Frame rate : 25.000 fps
    Color space : YUV
    Chroma subsampling : 4:2:0
    Bit depth : 8 bits
    Scan type : Progressive
    Compression mode : Lossy
    Bits/(Pixel*Frame) : 0.273
    Stream size : 1.30 GiB (91%)
    Writing library : XviD 1.2.1 (UTC 2008-12-04)
    Audio
    ID : 1
    Format : AC-3
    Format/Info : Audio Coding 3
    Mode extension : CM (complete main)
    Format settings, Endianness : Big
    Codec ID : 2000
    Duration : 1h 28mn
    Bit rate mode : Constant
    Bit rate : 192 Kbps
    Channel count : 2 channels
    Channel positions : Front: L R
    Sampling rate : 48.0 KHz
    Bit depth : 16 bits
    Compression mode : Lossy
    Stream size : 122 MiB (8%)
    Alignment : Split accross interleaves
    Interleave, duration : 40 ms (1.00 video frame)
    Interleave, preload duration : 500 ms

    Скриншоты


    Скачать .torrent

    Скачать торрент-файл бесплатно и на максимальной скорости!

    Как скачивать? · Что такое торрент? · Рейтинг и ограничения

    !ВНИМАНИЕ!
    Сайт не распространяет и не хранит электронные версии произведений, а занимается лишь лишь предоставлением доступа к создаваемому пользователями каталогу ссылок на торрент-файлы, которые содержат только списки хеш-сумм, убедительная просьба с жалобами обращаться напрямую к пользователю. Файлы для обмена на трекере предоставлены пользователями сайта, и администрация не несёт ответственности за их содержание. Просьба не заливать файлы, защищенные авторскими правами, а также файлы нелегального содержания!

    [Профиль] [ЛС]
    Показать сообщения:    
    Ответить на тему

    Текущее время: Сегодня, в 06:13

    Часовой пояс: GMT + 2



    Вы не можете начинать темы
    Вы не можете отвечать на сообщения
    Вы не можете редактировать свои сообщения
    Вы не можете удалять свои сообщения
    Вы не можете голосовать в опросах
    Вы не можете прикреплять файлы к сообщениям
    Вы не можете скачивать файлы