BitTorrentTracker PerecTracker.org
BitTorrentTracker PerecTracker.org
    
Регистрация  ·  Вход
 
 · 
Забыли пароль?

  • Вперед, Пардайан! / Le armi della vendetta / Hardi Pardaillan! (Бернар Бордери / Bernard Borderie) [1964, Франция, Италия, Приключения, комедия, экранизация, DVDRip] VO (SATKUR) + Original Fre

    Ответить на тему
     
    Автор Сообщение

    Columb

    Создавать темы 30-Мар-2014 18:09

           

    [Цитировать]

    Вперед, Пардайан! / Le armi della vendetta / Hardi Pardaillan!
    Страна: Франция, Италия
    Жанр: Приключения, комедия, экранизация
    Год выпуска: 1964
    Продолжительность: 01:34:46
    Перевод: Одноголосый закадровый SATKUR
    Cубтитры: нет
    Оригинальная аудиодорожка: французский
    Режиссер: Бернар Бордери / Bernard Borderie
    В ролях: Жерар Баррэ, Валери Лагранж, Кристиан Минацолли, Жаклин Данно, Иза Миранда, Каролина Рами, Мален Лювало, Роже Пикар, Жан Мартен, Софи Арди, Филип Лемер, Айвен Чифр, Жан Топар, Жан Роже Коссимон, Робер Берри, Жак Кастелло, Ги Делорм, Анри Коган, Франсуаз Жире, Жак Иллинг, Анри Атталь, Робер Дальбан, Франсис Клод, Жак Мино, Мусташ
    Описание: Приключенческая лента по роману Мишеля Зевако. 1558 год. Франция периода религиозных войн. В конфликт за право воссесть на трон вступают три Генриха - Генрих III, Генрих де Гиз и Генрих де Беарном. Город Шартрёз осаждён войсками герцога де Гиза. Король Генрих III по совету своей матери, Екатерины Медичи, призывает на помощь своего кузена, Генриха Наваррского. Шевалье Пардайан берётся за опасное поручение – сквозь вражеские позиции доставить Генриху письмо от его тезки-короля. Своей отвагой и остроумием он уже помогал молодой принцессе стать королевой Франции, а значит, сумеет справиться и с новым витком правительственных интриг, как бы ни гневались противники того, за кого он решил обнажить свою шпагу. Ни козни предателей, ни коварные интриги, не смогут остановить отважного гасконца...
    Доп. информация: Озвучено по субтитрам перевода IzabellaK, РИП - Lem из Кинозал.ТВ
    Качество видео: DVDRip
    Формат видео: AVI
    Видео: 704x288 (2,40:1), 25 fps, XviD 1718 kbps avg, 0.339 bit/pixel
    Аудио 1: 48 kHz, AC3 Dolby Digital, 2/0 (L,R) ch, ~192.00 kbps - русский
    Аудио 2: 48 kHz, AC3 Dolby Digital, 2/0 (L,R) ch, ~192.00 kbps - французкий

    MediaInfo

    Общее
    Полное имя : D:\FILM\F-2014\Disk-33\Le.armi.della.vendetta.1964.Fr.[vo.satkur+fr].AC3.Rus\Le.armi.della.vendetta.1964.Fr.[vo.satkur+fr].AC3.Rus.avi
    Формат : AVI
    Формат/Информация : Audio Video Interleave
    Размер файла : 1,40 Гбайт
    Продолжительность : 1 ч. 34 м.
    Общий поток : 2116 Кбит/сек
    Программа кодирования : VirtualDubModRus 1.5.10.2 (build 2542/release)
    Библиотека кодирования : VirtualDubMod build 2542/release
    Видео
    Идентификатор : 0
    Формат : MPEG-4 Visual
    Профиль формата : Advanced Simple@L5
    Параметр BVOP формата : 1
    Параметр QPel формата : Нет
    Параметр GMC формата : Без точки перехода
    Параметр матрицы формата : Default (MPEG)
    Идентификатор кодека : XVID
    Идентификатор кодека/Подсказка : XviD
    Продолжительность : 1 ч. 34 м.
    Битрейт : 1718 Кбит/сек
    Ширина : 704 пикселя
    Высота : 288 пикселей
    Соотношение сторон : 2,40:1
    Частота кадров : 25,000 кадров/сек
    Цветовое пространство : YUV
    Субдискретизация насыщенности : 4:2:0
    Битовая глубина : 8 бит
    Тип развёртки : Прогрессивная
    Метод сжатия : С потерями
    Бит/(Пиксели*Кадры) : 0.339
    Размер потока : 1,14 Гбайт (81%)
    Библиотека кодирования : XviD 73
    Аудио #1
    Идентификатор : 1
    Формат : AC-3
    Формат/Информация : Audio Coding 3
    Расширение режима : CM (complete main)
    Параметр Endianness формата : Big
    Идентификатор кодека : 2000
    Продолжительность : 1 ч. 34 м.
    Вид битрейта : Постоянный
    Битрейт : 192 Кбит/сек
    Каналы : 2 канала
    Расположение каналов : Front: L R
    Частота : 48,0 КГц
    Битовая глубина : 16 бит
    Метод сжатия : С потерями
    Размер потока : 130 Мбайт (9%)
    Выравнивание : Разделение по промежуткам
    Продолжительность промежутка : 40 мс. (1,00 видеокадр)
    Время предзагрузки промежутка : 500 мс.
    Аудио #2
    Идентификатор : 2
    Формат : AC-3
    Формат/Информация : Audio Coding 3
    Расширение режима : CM (complete main)
    Параметр Endianness формата : Big
    Идентификатор кодека : 2000
    Продолжительность : 1 ч. 34 м.
    Вид битрейта : Постоянный
    Битрейт : 192 Кбит/сек
    Каналы : 2 канала
    Расположение каналов : Front: L R
    Частота : 48,0 КГц
    Битовая глубина : 16 бит
    Метод сжатия : С потерями
    Размер потока : 130 Мбайт (9%)
    Выравнивание : Разделение по промежуткам
    Продолжительность промежутка : 40 мс. (1,00 видеокадр)
    Время предзагрузки промежутка : 500 мс.

    Скриншот c названием фильма

    Скриншоты

    Скачать .torrent

    Скачать торрент-файл бесплатно и на максимальной скорости!

    Как скачивать? · Что такое торрент? · Рейтинг и ограничения

    !ВНИМАНИЕ!
    Сайт не распространяет и не хранит электронные версии произведений, а занимается лишь лишь предоставлением доступа к создаваемому пользователями каталогу ссылок на торрент-файлы, которые содержат только списки хеш-сумм, убедительная просьба с жалобами обращаться напрямую к пользователю. Файлы для обмена на трекере предоставлены пользователями сайта, и администрация не несёт ответственности за их содержание. Просьба не заливать файлы, защищенные авторскими правами, а также файлы нелегального содержания!

    [Профиль] [ЛС]
    Показать сообщения:    
    Ответить на тему

    Текущее время: Сегодня, в 14:47

    Часовой пояс: GMT + 2



    Вы не можете начинать темы
    Вы не можете отвечать на сообщения
    Вы не можете редактировать свои сообщения
    Вы не можете удалять свои сообщения
    Вы не можете голосовать в опросах
    Вы не можете прикреплять файлы к сообщениям
    Вы не можете скачивать файлы