BitTorrentTracker PerecTracker.org
BitTorrentTracker PerecTracker.org
    
Регистрация  ·  Вход
 
 · 
Забыли пароль?

  • Гробовщик / Mortician (Куб Чын Кон Хонь / Cub Chin Kong-Hon) [2013, Китай, драма, мелодрама, BDRip] Sub Rus

    Ответить на тему
     
    Автор Сообщение

    Columb

    Создавать темы 30-Мар-2014 09:10

           

    [Цитировать]

    Гробовщик / Mortician
    Страна: Китай
    Жанр: драма, мелодрама
    Год выпуска: 2013
    Продолжительность: 01:34:40-Перевод: Субтитры (Ками & Рэйдзи)
    Cубтитры: русские (вшитые)
    Оригинальная аудиодорожка: Китайская-Режиссер: Куб Чын Кон Хонь / Cub Chin Kong-Hon
    В ролях: Бао Бэй Эр, Джим Чым Суй Мань, Дженис Мань Вин Сань, Стэнли Фун, Кристи Ён, Моника Мок-Описание: Сяобо, которого поразил удар молнии, не может улыбаться, поэтому ему приходится работать в морге и заниматься похоронами...--Релиз группы
    -Качество видео: BDRip (BD25)
    Формат видео: AVI
    Видео: XviD, 720x304 (2.37:1), 24.000 fps, 1921 kbps avg, 0.37 bit/pixel
    Аудио: Китайский MPEG layer 3, 128 kbps-

    MediaInfo

    Format : AVI
    Format/Info : Audio Video Interleave
    File size : 1.36 GiB
    Duration : 1h 34mn
    Overall bit rate : 2 059 Kbps
    Writing application : VirtualDubMod 1.5.10.3 | www.virtualdub-fr.org || (build 2550/release)
    Writing library : VirtualDubMod build 2550/release
    Video
    ID : 0
    Format : MPEG-4 Visual
    Format profile : Advanced Simple@L5
    Format settings, BVOP : 1
    Format settings, QPel : No
    Format settings, GMC : No warppoints
    Format settings, Matrix : Custom
    Codec ID : XVID
    Codec ID/Hint : XviD
    Duration : 1h 34mn
    Bit rate : 1 922 Kbps
    Width : 720 pixels
    Height : 304 pixels
    Display aspect ratio : 2.35:1
    Frame rate : 24.000 fps
    Color space : YUV
    Chroma subsampling : 4:2:0
    Bit depth : 8 bits
    Scan type : Progressive
    Compression mode : Lossy
    Bits/(Pixel*Frame) : 0.366
    Stream size : 1.27 GiB (93%)
    Writing library : XviD 73
    Audio
    ID : 1
    Format : MPEG Audio
    Format version : Version 1
    Format profile : Layer 3
    Codec ID : 55
    Codec ID/Hint : MP3
    Duration : 1h 34mn
    Bit rate mode : Constant
    Bit rate : 128 Kbps
    Channel(s) : 2 channels
    Sampling rate : 48.0 KHz
    Compression mode : Lossy
    Stream size : 86.7 MiB (6%)
    Alignment : Aligned on interleaves
    Interleave, duration : 42 ms (1.00 video frame)
    Interleave, preload duration : 504 ms

    Скриншот с названием

    Скриншоты

    Скачать .torrent

    Скачать торрент-файл бесплатно и на максимальной скорости!

    Как скачивать? · Что такое торрент? · Рейтинг и ограничения

    !ВНИМАНИЕ!
    Сайт не распространяет и не хранит электронные версии произведений, а занимается лишь лишь предоставлением доступа к создаваемому пользователями каталогу ссылок на торрент-файлы, которые содержат только списки хеш-сумм, убедительная просьба с жалобами обращаться напрямую к пользователю. Файлы для обмена на трекере предоставлены пользователями сайта, и администрация не несёт ответственности за их содержание. Просьба не заливать файлы, защищенные авторскими правами, а также файлы нелегального содержания!

    [Профиль] [ЛС]
    Показать сообщения:    
    Ответить на тему

    Текущее время: Сегодня, в 00:55

    Часовой пояс: GMT + 2



    Вы не можете начинать темы
    Вы не можете отвечать на сообщения
    Вы не можете редактировать свои сообщения
    Вы не можете удалять свои сообщения
    Вы не можете голосовать в опросах
    Вы не можете прикреплять файлы к сообщениям
    Вы не можете скачивать файлы