BitTorrentTracker PerecTracker.org
BitTorrentTracker PerecTracker.org
    
Регистрация  ·  Вход
 
 · 
Забыли пароль?

  • Стартрек: Бесконечность / Star Trek Beyond (Джастин Лин / Justin Lin) [2016, США, фантастика, боевик, триллер, WEB-DLRip-AVC] Dub + Sub (rus)

    Ответить на тему
     
    Автор Сообщение

    rechyn

    Создавать темы 18-Окт-2016 23:50

           

    [Цитировать]

    Стартрек: Бесконечность / Star Trek Beyond«Fifty year. One legacy»-Страна: США
    Жанр: фантастика, боевик, триллер, приключения
    Год выпуска: 2016
    Продолжительность: 02:02:21
    Перевод: Профессиональный (дублированный) (iTunes)
    Оригинальная аудиодорожка: нет
    Субтитры: русские (форс.)
    Навигация по главам: есть
    Режиссер: Джастин Лин / Justin Lin
    В ролях: Крис Пайн (Captain James T. Kirk), Закари Куинто (Commander Spock), Саймон Пегг (Montgomery «Scotty» Scott), Карл Урбан (Doctor «Bones» McCoy), Зои Салдана (Lieutenant Uhura), Джон Чо (Sulu), Антон Ельчин (Chekov), Идрис Эльба (Krall), София Бутелла (Jaylah), Джо Таслим (Manas), Лидия Уилсон (Kalara), Дип Рой (Keenser)
    Описание: Бесстрашная команда крейсера Звездного Флота «Энтерпрайз» исследует неизведанные глубины космоса. Во время этого полного опасностей путешествия герои сталкиваются с таинственной силой, ставящей под угрозу не только их миссию и стабильность Федерации, но и весь миропорядок.- -Качество: WEB-DLRip-AVC (исходник - Star.Trek.Beyond.2016.1080p.WEB-DL.DD5.1.H264-FGT)
    Формат видео: MKV
    Видео: x264, 960x402 (2.40:1), 23,976 fps, ~1319 kbps, 0,143 bit/pixel
    Аудио: 48 kHz, AC3 Dolby Digital, 5.1, (Front: L C R, Side: L R, LFE) ch, ~ 384 kbps
    Формат субтитров: softsub (SRT)-MediaInfo | x264 log
    Format : Matroska
    Format version : Version 4 / Version 2
    File size : 1.49 GiB
    Duration : 2 h 2 min
    Overall bit rate : 1 738 kb/s
    Movie name : Стартрек: Бесконечность / Star Trek Beyond (2016) :: AFM ::
    Encoded date : UTC 2016-10-17 19:00:28
    Writing application : mkvmerge v8.3.0 ('Over the Horizon') 32bit
    Writing library : libebml v1.3.1 + libmatroska v1.4.2
    Video
    ID : 1
    Format : AVC
    Format/Info : Advanced Video Codec
    Format profile : High@L4.1
    Format settings, CABAC : Yes
    Format settings, ReFrames : 12 frames
    Codec ID : V_MPEG4/ISO/AVC
    Duration : 2 h 2 min
    Bit rate : 1 319 kb/s
    Width : 960 pixels
    Height : 402 pixels
    Display aspect ratio : 2.40:1
    Frame rate mode : Constant
    Frame rate : 23.976 (24000/1001) FPS
    Color space : YUV
    Chroma subsampling : 4:2:0
    Bit depth : 8 bits
    Scan type : Progressive
    Bits/(Pixel*Frame) : 0.143
    Stream size : 1.13 GiB (76%)
    Title : WEB_DLRip by AFM
    Writing library : x264 core 148 r2705+54 9f484c1 t_mod_Custom [8-bit@all X86_64]
    Encoding settings : cabac=1 / ref=12 / deblock=1:-2:-1 / analyse=0x3:0x133 / me=umh / subme=10 / psy=1 / fade_compensate=0.00 / psy_rd=1.00:0.00 / mixed_ref=1 / me_range=32 / chroma_me=1 / trellis=2 / 8x8dct=1 / cqm=0 / deadzone=21,11 / fast_pskip=0 / chroma_qp_offset=-2 / threads=6 / lookahead_threads=1 / sliced_threads=0 / nr=0 / decimate=1 / interlaced=0 / bluray_compat=0 / constrained_intra=0 / fgo=0 / bframes=10 / b_pyramid=2 / b_adapt=2 / b_bias=0 / direct=1 / weightb=1 / open_gop=0 / weightp=2 / keyint=250 / keyint_min=23 / scenecut=40 / intra_refresh=0 / rc_lookahead=40 / rc=crf / mbtree=0 / crf=19.9000 / qcomp=0.65 / qpmin=0:0:0 / qpmax=69:69:69 / qpstep=4 / vbv_maxrate=50000 / vbv_bufsize=62500 / crf_max=0.0 / nal_hrd=none / filler=0 / ip_ratio=1.35 / pb_ratio=1.30 / aq=3:0.80 / aq-sensitivity=10.00 / aq-factor=1.00:1.00:1.00 / aq2=0 / aq3=0
    Language : English
    Default : Yes
    Forced : No
    Audio
    ID : 2
    Format : AC-3
    Format/Info : Audio Coding 3
    Mode extension : CM (complete main)
    Format settings, Endianness : Big
    Codec ID : A_AC3
    Duration : 2 h 2 min
    Bit rate mode : Constant
    Bit rate : 384 kb/s
    Channel(s) : 6 channels
    Channel positions : Front: L C R, Side: L R, LFE
    Sampling rate : 48.0 kHz
    Frame rate : 31.250 FPS (1536 spf)
    Compression mode : Lossy
    Stream size : 336 MiB (22%)
    Title : Dub, AC3 5.1 ~384 kbps
    Language : Russian
    Default : Yes
    Forced : No
    Text
    ID : 3
    Format : UTF-8
    Codec ID : S_TEXT/UTF8
    Codec ID/Info : UTF-8 Plain Text
    Title : forced
    Language : Russian
    Default : Yes
    Forced : No
    Menu
    00:00:00.000 : en:Chapter 1
    00:08:25.000 : en:Chapter 2
    00:16:10.000 : en:Chapter 3
    00:32:37.000 : en:Chapter 4
    00:42:15.000 : en:Chapter 5
    00:52:21.000 : en:Chapter 6
    00:59:49.000 : en:Chapter 7
    01:12:04.000 : en:Chapter 8
    01:22:33.000 : en:Chapter 9
    01:33:00.000 : en:Chapter 10
    01:40:32.000 : en:Chapter 11
    01:47:38.000 : en:Chapter 12
    01:52:31.000 : en:Chapter 13
    01:55:40.000 : en:Chapter 14

    x264

    x264 [info]: frame I:1407 Avg QP:17.43 size: 33449
    x264 [info]: frame P:46646 Avg QP:19.03 size: 13449
    x264 [info]: frame B:127965 Avg QP:21.85 size: 4425
    x264 [info]: consecutive B-frames: 3.4% 4.7% 9.1% 53.4% 12.4% 13.4% 1.8% 1.0% 0.2% 0.1% 0.4%
    x264 [info]: mb I I16..4: 9.0% 68.7% 22.3%
    x264 [info]: mb P I16..4: 1.9% 13.5% 2.6% P16..4: 41.3% 19.7% 12.7% 0.5% 0.1% skip: 7.7%
    x264 [info]: mb B I16..4: 0.2% 1.6% 0.4% B16..8: 40.1% 9.9% 2.3% direct: 4.4% skip:41.1% L0:40.7% L1:48.2% BI:11.1%
    x264 [info]: 8x8 transform intra:73.5% inter:69.2%
    x264 [info]: coded y,uvDC,uvAC intra: 74.3% 72.0% 38.7% inter: 17.4% 14.3% 2.2%
    x264 [info]: i16 v,h,dc,p: 24% 16% 9% 51%
    x264 [info]: i8 v,h,dc,ddl,ddr,vr,hd,vl,hu: 17% 9% 6% 8% 12% 11% 13% 10% 13%
    x264 [info]: i4 v,h,dc,ddl,ddr,vr,hd,vl,hu: 20% 8% 4% 9% 13% 11% 13% 9% 13%
    x264 [info]: i8c dc,h,v,p: 37% 26% 22% 15%
    x264 [info]: Weighted P-Frames: Y:5.7% UV:3.3%
    x264 [info]: ref P L0: 53.8% 10.3% 15.0% 5.5% 4.0% 3.0% 2.4% 1.4% 1.3% 1.1% 1.1% 1.1% 0.1% 0.0%
    x264 [info]: ref B L0: 81.9% 8.5% 3.7% 1.7% 1.2% 0.9% 0.7% 0.5% 0.4% 0.3% 0.2%
    x264 [info]: ref B L1: 96.3% 3.7%
    x264 [info]: kb/s:1351.95

    Скриншоты

    с названием

    Скачать .torrent

    Скачать торрент-файл бесплатно и на максимальной скорости!

    Как скачивать? · Что такое торрент? · Рейтинг и ограничения

    !ВНИМАНИЕ!
    Сайт не распространяет и не хранит электронные версии произведений, а занимается лишь лишь предоставлением доступа к создаваемому пользователями каталогу ссылок на торрент-файлы, которые содержат только списки хеш-сумм, убедительная просьба с жалобами обращаться напрямую к пользователю. Файлы для обмена на трекере предоставлены пользователями сайта, и администрация не несёт ответственности за их содержание. Просьба не заливать файлы, защищенные авторскими правами, а также файлы нелегального содержания!


    _________________
    [Профиль] [ЛС]
    Показать сообщения:    
    Ответить на тему

    Текущее время: Сегодня, в 18:56

    Часовой пояс: GMT + 2



    Вы не можете начинать темы
    Вы не можете отвечать на сообщения
    Вы не можете редактировать свои сообщения
    Вы не можете удалять свои сообщения
    Вы не можете голосовать в опросах
    Вы не можете прикреплять файлы к сообщениям
    Вы не можете скачивать файлы