BitTorrentTracker PerecTracker.org
BitTorrentTracker PerecTracker.org
    
Регистрация  ·  Вход
 
 · 
Забыли пароль?

  • Стартрек: Бесконечность / Star Trek Beyond (Джастин Лин / Justin Lin) [2016, США, Фантастика, боевик, триллер, приключения, HDRip] Dub (iTunes) + Sub Rus

    Ответить на тему
     
    Автор Сообщение

    rechyn

    Создавать темы 18-Окт-2016 23:50

           

    [Цитировать]

    Стартрек: Бесконечность / Star Trek Beyond
    Страна: США
    Жанр: Фантастика, боевик, триллер, приключения
    Год выпуска: 2016
    Продолжительность: 02:02:22
    Перевод: Профессиональный (дублированный) iTunes
    Cубтитры: Русские форсированные (отдельно)
    Режиссер: Джастин Лин / Justin Lin
    В ролях: Крис Пайн, Закари Куинто, Саймон Пегг, Карл Урбан, Зои Салдана, Джон Чо, Антон Ельчин, Идрис Эльба, София Бутелла, Джо Таслим
    Описание: Через два года после начала очередной космической миссии команда «Энтерпрайза» сталкивается с испытанием, перед которым меркнут все предыдущие приключения отважного экипажа. После атаки неопознанных врагов корабль терпит бедствие на таинственной, затерянной в глубинах пространства планете. Оказавшись на краю Вселенной, лишенные помощи Федерации, капитан Кирк и его товарищи узнают о существовании чудовищного оружия, угрожающего обитаемым планетным системам.
    Сэмпл
    Качество видео: HDRip / Исх. Star.Trek.Beyond.2016.BDRip.1080p-селезень
    Формат видео: AVI
    Видео: 720x304 (2.37:1), 23.976 fps, XviD build 73 ~1313 kbps avg, 0.25 bit/pixel
    Аудио: 48 kHz, AC3 Dolby Digital, 3/2 (L,C,R,l,r) + LFE ch, ~384 kbps

    MediaInfo

    ОбщееПолное имя : D:\Star.Trek.Beyond.2016.HDRip.1.46Gb.MegaPeer\Star.Trek.Beyond.2016.HDRip.1.46Gb.MegaPeer.aviФормат : AVIФормат/Информация : Audio Video InterleaveРазмер файла : 1,46 ГбайтПродолжительность : 2 ч. 2 м.Общий поток : 1705 Кбит/сек
    ВидеоИдентификатор : 0Формат : MPEG-4 VisualПрофиль формата : Advanced Simple@L5Параметр BVOP формата : 1Параметр QPel формата : НетПараметр GMC формата : Без точки переходаПараметр матрицы формата : ВыборочнаяИдентификатор кодека : XVIDИдентификатор кодека/Подсказка : XviDПродолжительность : 2 ч. 2 м.Битрейт : 1314 Кбит/секШирина : 720 пикселейВысота : 304 пикселяСоотношение сторон : 2,35:1Частота кадров : 23,976 (24000/1001) кадра/секЦветовое пространство : YUVСубдискретизация насыщенности : 4:2:0Битовая глубина : 8 битТип развёртки : ПрогрессивнаяМетод сжатия : С потерямиБит/(Пиксели*Кадры) : 0.250Размер потока : 1,12 Гбайт (77%)Библиотека кодирования : XviD 73
    АудиоИдентификатор : 1Формат : AC-3Формат/Информация : Audio Coding 3Расширение режима : CM (complete main)Параметр Endianness формата : BigИдентификатор кодека : 2000Продолжительность : 2 ч. 2 м.Вид битрейта : ПостоянныйБитрейт : 384 Кбит/секКаналы : 6 каналовРасположение каналов : Front: L C R, Side: L R, LFEЧастота : 48,0 КГцЧастота кадров : 31,250 кадров/сек (1536 spf)Метод сжатия : С потерямиРазмер потока : 336 Мбайт (23%)Выравнивание : Соединение по промежуткамПродолжительность промежутка : 64 мс. (1,53 видеокадра)Время предзагрузки промежутка : 1024 мс.Заголовок : iTunes

    Скриншоты

    Скачать .torrent

    Скачать торрент-файл бесплатно и на максимальной скорости!

    Как скачивать? · Что такое торрент? · Рейтинг и ограничения

    !ВНИМАНИЕ!
    Сайт не распространяет и не хранит электронные версии произведений, а занимается лишь лишь предоставлением доступа к создаваемому пользователями каталогу ссылок на торрент-файлы, которые содержат только списки хеш-сумм, убедительная просьба с жалобами обращаться напрямую к пользователю. Файлы для обмена на трекере предоставлены пользователями сайта, и администрация не несёт ответственности за их содержание. Просьба не заливать файлы, защищенные авторскими правами, а также файлы нелегального содержания!


    _________________
    [Профиль] [ЛС]
    Показать сообщения:    
    Ответить на тему

    Текущее время: Сегодня, в 14:56

    Часовой пояс: GMT + 2



    Вы не можете начинать темы
    Вы не можете отвечать на сообщения
    Вы не можете редактировать свои сообщения
    Вы не можете удалять свои сообщения
    Вы не можете голосовать в опросах
    Вы не можете прикреплять файлы к сообщениям
    Вы не можете скачивать файлы