BitTorrentTracker PerecTracker.org
BitTorrentTracker PerecTracker.org
    
Регистрация  ·  Вход
 
 · 
Забыли пароль?

  • Краденое свидание / Man Up (Бен Палмер / Ben Palmer) [2015, Великобритания, Франция, мелодрама, комедия, HDTVRip] [Open Matte] MVO (1 канал)

    Ответить на тему
     
    Автор Сообщение

    Light

    Создавать темы 18-Окт-2016 23:50

           

    [Цитировать]

    Краденое свидание / Man Up / Open Matte
    Страна: Великобритания, Франция
    Жанр: мелодрама, комедия
    Год выпуска: 2015
    Продолжительность: 01:20:00
    Перевод: Профессиональный (многоголосый закадровый) 1 канал
    Cубтитры: нет
    Оригинальная аудиодорожка: нет
    Режиссер: Бен Палмер / Ben Palmer
    В ролях: Саймон Пегг, Лэйк Белл, Рори Киннер, Оливия Уильямс, Генри Ллойд-Хьюз, Офелия Ловибонд, Шэрон Хорган, Стивен Кэмпбелл Мур, Дин-Чарльз Чепмен, Кен Стотт
    Описание: Одинокая, замкнутая в себе девушка, тридцати четырех лет от роду по ошибке попадает на свидание вслепую. И вместо того, чтобы признаться парню в том, что она не та за кого он ее принял, она начинает играть роль, что в последствии приводит к комичным ситуациям и любви, так сказать "с первого псевдосвидания".
    Доп. информация: Рип с канала Первый HD. Из видеоряда удален логотип канала, остались послерекламные вставки с названием фильма. Наполнение кадра больше чем на BD http://screenshotcomparison.com/comparison/188149
    Сэмпл: http://multi-up.com/1123253
    Качество видео: HDTVRip
    Формат видео: AVI
    Видео: MPEG4, XviD, 720x400 (16:9), 25.000 fps, 2 248 Kbps (0.312 bit/pixel)
    Аудио: AC-3, 48.0 KHz, 2 ch, 192 Kbps, CBR

    MediaInfo

    Общее
    Полное имя : M:\Краденое свидание.avi
    Формат : AVI
    Формат/Информация : Audio Video Interleave
    Размер файла : 1,37 Гбайт
    Продолжительность : 1 ч. 20 м.
    Общий поток : 2450 Кбит/сек
    Название фильма : Краденое свидание / Man Up (2015)
    Программа кодирования : VirtualDubMod 1.5.10.2 (build 2540/release)
    Библиотека кодирования : VirtualDubMod build 2540/release
    Авторское право : miha2154
    Видео
    Идентификатор : 0
    Формат : MPEG-4 Visual
    Профиль формата : Advanced Simple@L5
    Параметр BVOP формата : 1
    Параметр QPel формата : Нет
    Параметр GMC формата : Без точки перехода
    Параметр матрицы формата : Выборочная
    Идентификатор кодека : XVID
    Идентификатор кодека/Подсказка : XviD
    Продолжительность : 1 ч. 20 м.
    Битрейт : 2248 Кбит/сек
    Ширина : 720 пикселей
    Высота : 400 пикселей
    Соотношение сторон : 16:9
    Частота кадров : 25,000 кадров/сек
    Цветовое пространство : YUV
    Субдискретизация насыщенности : 4:2:0
    Битовая глубина : 8 бит
    Тип развёртки : Прогрессивная
    Метод сжатия : С потерями
    Бит/(Пиксели*Кадры) : 0.312
    Размер потока : 1,26 Гбайт (92%)
    Библиотека кодирования : XviD 65
    Аудио
    Идентификатор : 1
    Формат : AC-3
    Формат/Информация : Audio Coding 3
    Расширение режима : CM (complete main)
    Параметр Endianness формата : Big
    Идентификатор кодека : 2000
    Продолжительность : 1 ч. 20 м.
    Вид битрейта : Постоянный
    Битрейт : 192 Кбит/сек
    Каналы : 2 канала
    Расположение каналов : Front: L R
    Частота : 48,0 КГц
    Частота кадров : 31,250 кадров/сек (1536 spf)
    Метод сжатия : С потерями
    Размер потока : 110 Мбайт (8%)
    Выравнивание : Разделение по промежуткам
    Продолжительность промежутка : 40 мс. (1,00 видеокадр)
    Время предзагрузки промежутка : 500 мс.
    Заголовок : Профессиональный (многоголосый закадровый) 1 канал

    Скриншоты


    Скачать .torrent

    Скачать торрент-файл бесплатно и на максимальной скорости!

    Как скачивать? · Что такое торрент? · Рейтинг и ограничения

    !ВНИМАНИЕ!
    Сайт не распространяет и не хранит электронные версии произведений, а занимается лишь лишь предоставлением доступа к создаваемому пользователями каталогу ссылок на торрент-файлы, которые содержат только списки хеш-сумм, убедительная просьба с жалобами обращаться напрямую к пользователю. Файлы для обмена на трекере предоставлены пользователями сайта, и администрация не несёт ответственности за их содержание. Просьба не заливать файлы, защищенные авторскими правами, а также файлы нелегального содержания!


    _________________
    [Профиль] [ЛС]
    Показать сообщения:    
    Ответить на тему

    Текущее время: Сегодня, в 02:53

    Часовой пояс: GMT + 2



    Вы не можете начинать темы
    Вы не можете отвечать на сообщения
    Вы не можете редактировать свои сообщения
    Вы не можете удалять свои сообщения
    Вы не можете голосовать в опросах
    Вы не можете прикреплять файлы к сообщениям
    Вы не можете скачивать файлы