BitTorrentTracker PerecTracker.org
BitTorrentTracker PerecTracker.org
    
Регистрация  ·  Вход
 
 · 
Забыли пароль?

  • Заблудшие в Мюнхене / Ztraceni v Mnichove (Петр Зеленка / Petr Zelenka) [2015, Чехия, комедия, драма, DVDRp-AVC] VO (Kass) + Sub Eng + Original Cze

    Ответить на тему
     
    Автор Сообщение

    Light

    Создавать темы 18-Окт-2016 23:50

           

    [Цитировать]

    Заблудшие в Мюнхене / Ztraceni v MnichoveСтрана: Чехия
    Жанр: комедия, драма
    Год выпуска: 2015
    Продолжительность: 01:42:48-Перевод: Одноголосый закадровый (женский)
    Оригинальная аудиодорожка: чешский
    Cубтитры: английские-Режиссер: Петр Зеленка / Petr Zelenka-В ролях-Мартин Мышичка / Martin Mysicka, Томаш Бамбушек / Tomas Bambusek, Владимир Шкултеты / Vladimir Skultety, Станислас Пьерре / Stanislas Pierret, Марциал Ди Фонзо Бо / Marcial Di Fonzo Bo, Иржи Рендл / Jiri Rendl, Прокоп Голоубек / Prokop Holoubek, Эдита Лева / Edita Leva, Марек Тацлик / Marek Taclik, Ярослав Пижл / Jaroslav Pizl, Йохана Матоушкова / Johana Matouskova, Ян Кадлец / Jan Kadlec, Вилиам Достал / Viliam Dostal, Яна Плодкова / Jana Plodkova, Йитка Шнайдерова / Jitka Schneiderova, Владимира Фоминова / Vladimira Fominova, Клара Лидова / Klara Lidova, Вацлав Неужил мл. / Vaclav Neuzil ml., Криштоф Моуха / Krystof Mucha-Описание-Киногруппа снимает легкую комедию «о мужике, который так подружился с попугаем, что бросил семью, работу, поступил в цирк и исколесил всю Францию». Пенка в том, что попугай говорящий. Он принадлежал Эдуару Даладье, одному из участников «Мюнхенского сговора», и теперь выдает все его секреты.
    Съемки не удается закончить из-за трагической смерти актера. Такова официальная версия.
    Далее идет подлинная история съемок, чем дальше тем больше чумовая. В результате их был раскрыт важный исторический секрет: никакой народной трагедии на самом деле и не было, а был великолепно разыгранный спектакль. Миф оказался развенчан... и все оставлено в строжайшей тайне.
    Улётный фильм Зеленки о том, надо ли копаться в истории. Для всех, кто любит хоть немного шевелить извилинами.
    -Качество видео: DVDRip
    Исходное видео: DVD9
    Контейнер: MKV-Видео: AVC, ~2296 kbps, 720x428@1024x428 (2.40:1), 25.000 fps
    Аудио: AC-3, 448 kbps, Dolby Digital, 3/2 (L,C,R,l,r) + LFE ch, 48 KHz |VO|
    Аудио: AC-3, 448 kbps, Dolby Digital, 3/2 (L,C,R,l,r) + LFE ch, 48 KHz |Original|
    Главы: есть (не подписаны)-

    MediaInfo

    х264

    VIDEO ENCODING
    ------------------------------
    Encoding video to: J:\Temp\0053.264
    x264 Q17.6 720x428 25.000fps (154222 frames)
    avs4x26x.exe: -L x264_64.exe --crf 17.6 --preset veryslow --profile high --level 4.1 --aq-mode 3 --aq-strength 0.8 --deblock -3:-3 --merange 48 --bframes 14 --subme 11 --no-mbtree --colorprim bt709 --transfer bt709 --colormatrix bt709 --sar 64:45 --output "J:\Temp\0053.264" "J:\Temp\0053.avs"
    raw [info]: 720x428p 64:45 @ 25/1 fps (cfr)
    x264 [info]: using SAR=64/45
    x264 [info]: using cpu capabilities: MMX2 SSE2Fast LZCNT
    x264 [info]: profile High, level 4.1
    x264 [info]: frame I:1226 Avg QP:17.23 size: 45324
    x264 [info]: frame P:32289 Avg QP:18.94 size: 21568
    x264 [info]: frame B:120707 Avg QP:20.85 size: 8440
    x264 [info]: consecutive B-frames: 1.6% 2.3% 6.0% 24.7% 16.6% 33.8% 8.6% 1.5% 1.6% 1.0% 0.6% 0.7% 0.1% 0.3% 0.5%
    x264 [info]: mb I I16..4: 4.1% 85.9% 10.0%
    x264 [info]: mb P I16..4: 0.3% 17.0% 1.0% P16..4: 27.2% 33.2% 15.0% 1.6% 0.1% skip: 4.6%
    x264 [info]: mb B I16..4: 0.0% 2.0% 0.1% B16..8: 34.9% 23.3% 4.4% direct: 8.3% skip:27.0% L0:41.9% L1:38.4% BI:19.7%
    x264 [info]: 8x8 transform intra:92.6% inter:65.6%
    x264 [info]: direct mvs spatial:99.8% temporal:0.2%
    x264 [info]: coded y,uvDC,uvAC intra: 96.9% 87.2% 68.1% inter: 39.7% 29.2% 4.1%
    x264 [info]: i16 v,h,dc,p: 47% 12% 9% 32%
    x264 [info]: i8 v,h,dc,ddl,ddr,vr,hd,vl,hu: 14% 7% 10% 9% 12% 14% 10% 13% 11%
    x264 [info]: i4 v,h,dc,ddl,ddr,vr,hd,vl,hu: 19% 7% 5% 8% 14% 16% 11% 12% 9%
    x264 [info]: i8c dc,h,v,p: 40% 21% 23% 17%
    x264 [info]: Weighted P-Frames: Y:14.6% UV:8.7%
    x264 [info]: ref P L0: 41.0% 11.7% 19.0% 6.3% 5.6% 3.4% 3.3% 1.6% 1.6% 1.2% 1.2% 0.9% 1.0% 0.7% 0.8% 0.5%
    x264 [info]: ref B L0: 78.2% 9.2% 4.2% 2.2% 1.5% 1.2% 0.9% 0.6% 0.5% 0.4% 0.3% 0.3% 0.3% 0.2% 0.1%
    x264 [info]: ref B L1: 96.0% 4.0%
    x264 [info]: kb/s:2296.35
    Complete name : K:\Раздачи\Ztraceni_v_Mnichove.2015.DVDRip_x264_cw.mkv
    Format : Matroska
    Format version : Version 2
    File size : 2.29 GiB
    Duration : 1 h 42 min
    Overall bit rate : 3 195 kb/s
    Movie name : Заблудшие в Мюнхене / Ztraceni v Mnichove (2015)_[RGTru]
    Encoded date : UTC 2016-10-18 11:51:06
    Writing application : mkvmerge v7.8.0 ('River Man') 32bit built on Apr 3 2015 12:11:22
    Writing library : libebml v1.3.1 + libmatroska v1.4.2
    Cover : Yes
    Attachments : cover.jpg
    Video
    ID : 1
    Format : AVC
    Format/Info : Advanced Video Codec
    Format profile : High@L4.1
    Format settings, CABAC : Yes
    Format settings, ReFrames : 16 frames
    Codec ID : V_MPEG4/ISO/AVC
    Duration : 1 h 42 min
    Bit rate : 2 235 kb/s
    Width : 720 pixels
    Height : 428 pixels
    Display aspect ratio : 2.40:1
    Frame rate mode : Constant
    Frame rate : 25.000 FPS
    Color space : YUV
    Chroma subsampling : 4:2:0
    Bit depth : 8 bits
    Scan type : Progressive
    Bits/(Pixel*Frame) : 0.290
    Stream size : 1.61 GiB (70%)
    Title : Ztraceni_v_Mnichove.2015.DVDRip_x264_cw
    Writing library : x264 core 148 r2721 72d53ab
    Encoding settings : cabac=1 / ref=16 / deblock=1:-3:-3 / analyse=0x3:0x133 / me=umh / subme=11 / psy=1 / psy_rd=1.00:0.00 / mixed_ref=1 / me_range=48 / chroma_me=1 / trellis=2 / 8x8dct=1 / cqm=0 / deadzone=21,11 / fast_pskip=1 / chroma_qp_offset=-2 / threads=4 / lookahead_threads=1 / sliced_threads=0 / nr=0 / decimate=1 / interlaced=0 / bluray_compat=0 / constrained_intra=0 / bframes=14 / b_pyramid=2 / b_adapt=2 / b_bias=0 / direct=3 / weightb=1 / open_gop=0 / weightp=2 / keyint=250 / keyint_min=25 / scenecut=40 / intra_refresh=0 / rc=crf / mbtree=0 / crf=17.6 / qcomp=0.60 / qpmin=0 / qpmax=69 / qpstep=4 / ip_ratio=1.40 / pb_ratio=1.30 / aq=3:0.80
    Language : Russian
    Default : Yes
    Forced : No
    Color range : Limited
    Color primaries : BT.709
    Transfer characteristics : BT.709
    Matrix coefficients : BT.709
    Audio #1
    ID : 2
    Format : AC-3
    Format/Info : Audio Coding 3
    Mode extension : CM (complete main)
    Format settings, Endianness : Big
    Codec ID : A_AC3
    Duration : 1 h 42 min
    Bit rate mode : Constant
    Bit rate : 448 kb/s
    Channel(s) : 6 channels
    Channel positions : Front: L C R, Side: L R, LFE
    Sampling rate : 48.0 kHz
    Frame rate : 31.250 FPS (1536 spf)
    Compression mode : Lossy
    Stream size : 329 MiB (14%)
    Title : VO_Kass
    Language : Russian
    Default : Yes
    Forced : No
    Audio #2
    ID : 3
    Format : AC-3
    Format/Info : Audio Coding 3
    Mode extension : CM (complete main)
    Format settings, Endianness : Big
    Codec ID : A_AC3
    Duration : 1 h 42 min
    Bit rate mode : Constant
    Bit rate : 448 kb/s
    Channel(s) : 6 channels
    Channel positions : Front: L C R, Side: L R, LFE
    Sampling rate : 48.0 kHz
    Frame rate : 31.250 FPS (1536 spf)
    Compression mode : Lossy
    Stream size : 329 MiB (14%)
    Title : Original / Оригинал
    Language : Czech
    Default : No
    Forced : No
    Text
    ID : 4
    Format : UTF-8
    Codec ID : S_TEXT/UTF8
    Codec ID/Info : UTF-8 Plain Text
    Language : English
    Default : No
    Forced : No
    Menu
    00:00:00.000 : en:Chapter 1
    00:07:41.760 : en:Chapter 2
    00:16:32.520 : en:Chapter 3
    00:24:24.080 : en:Chapter 4
    00:28:58.640 : en:Chapter 5
    00:37:20.720 : en:Chapter 6
    00:44:18.800 : en:Chapter 7
    00:51:48.080 : en:Chapter 8
    00:58:46.160 : en:Chapter 9
    01:07:57.200 : en:Chapter 10
    01:21:24.080 : en:Chapter 11
    01:36:38.000 : en:Chapter 12
    01:42:48.400 : en:Chapter 13

    Скриншоты

    Сравнение с исходником

    Rip
    -DVD
    -


    Анаморф

    Скачать .torrent

    Скачать торрент-файл бесплатно и на максимальной скорости!

    Как скачивать? · Что такое торрент? · Рейтинг и ограничения

    !ВНИМАНИЕ!
    Сайт не распространяет и не хранит электронные версии произведений, а занимается лишь лишь предоставлением доступа к создаваемому пользователями каталогу ссылок на торрент-файлы, которые содержат только списки хеш-сумм, убедительная просьба с жалобами обращаться напрямую к пользователю. Файлы для обмена на трекере предоставлены пользователями сайта, и администрация не несёт ответственности за их содержание. Просьба не заливать файлы, защищенные авторскими правами, а также файлы нелегального содержания!


    _________________
    [Профиль] [ЛС]
    Показать сообщения:    
    Ответить на тему

    Текущее время: Сегодня, в 16:37

    Часовой пояс: GMT + 2



    Вы не можете начинать темы
    Вы не можете отвечать на сообщения
    Вы не можете редактировать свои сообщения
    Вы не можете удалять свои сообщения
    Вы не можете голосовать в опросах
    Вы не можете прикреплять файлы к сообщениям
    Вы не можете скачивать файлы