BitTorrentTracker PerecTracker.org
BitTorrentTracker PerecTracker.org
    
Регистрация  ·  Вход
 
 · 
Забыли пароль?

  • Проект X: Дорвались / Project X (Нима Нуризаде / Nima Nourizadeh) [2012, США, комедия, HDRip] [Theatrical Cut] Dub

    Ответить на тему
     
    Автор Сообщение

    Light

    Создавать темы 18-Окт-2016 19:30

           

    [Цитировать]

    Проект X: Дорвались / Project X-Год выпуска: 2012
    Страна: США / Silver Pictures
    Версия фильма: Театральная версия / Theatrical Cut
    Жанр: комедия
    Продолжительность: 01:27:52
    Перевод: Профессиональный (дублированный)
    Cубтитры: нет-Режиссер: Нима Нуризаде / Nima Nourizadeh-В ролях: Томас Манн, Оливер Купер, Джонатан Даниэль Браун, Дакс Флэйм, Кирби Блисс Блэнтон, Брэйди Эндер, Ник Нервис, Алексис Кнапп, Майлз Теллер, Питер Маккензи.-Описание: Три школьных друга слегка обделены вниманием окружающих и являются классическими лузерами, кроме Косты. Но желание доказать всем что они не совсем отстой у парней очень сильное и в один вечер они решают закатить дома грандиозную школьную вечеринку. Да и повод подвернулся как нельзя кстати, у Томаса намечается День рождения, а его родители как раз уезжают на эти выходные из города. Коста умудряется рассказать о готовящемся мероприятии всем знакомым, в итоге собирается огромная куча народа, даже выпускники прошлых лет. Ребята радуются своему успеху, они наконец-то смогли оказаться в центре внимания своих одноклассников и более крутых парней. На вечеринке выпивка льётся рекой, молодые девушки отрываются на полную — это просто рай для семнадцатилетних парней. Но вот что им преподнесёт следующее утро и стоило ли веселье того?-Автор рипа: Scarabey-Качество видео: HDRip
    Формат видео: AVI | Sample
    Видео: 624x352 (16:9), 23.976 fps, XviD build 50 ~1043 kbps avg, 0.20 bit/pixel
    Аудио: 48 kHz, MPEG Layer 3, 2 ch, ~128.00 kbps avg

    Инфо

    Общее
    Полное имя : D:\Торрент\Project.X.2012.TC.HDRip.avi
    Формат : AVI
    Формат/Информация : Audio Video Interleave
    Размер файла : 742 Мбайт
    Продолжительность : 1 ч. 27 м.
    Общий поток : 1180 Кбит/сек
    Программа кодирования : VirtualDubMod 1.5.10.2 (build 2540/release)
    Библиотека кодирования : VirtualDubMod build 2540/release
    Видео
    Идентификатор : 0
    Формат : MPEG-4 Visual
    Профиль формата : Advanced Simple@L5
    Параметр BVOP формата : 1
    Параметр QPel формата : Нет
    Параметр GMC формата : Без точки перехода
    Параметр матрицы формата : Выборочная
    Идентификатор кодека : XVID
    Идентификатор кодека/Подсказка : XviD
    Продолжительность : 1 ч. 27 м.
    Битрейт : 1043 Кбит/сек
    Ширина : 624 пикселя
    Высота : 352 пикселя
    Соотношение сторон : 16:9
    Частота кадров : 23,976 (23976/1000) кадра/сек
    Цветовое пространство : YUV
    Субдискретизация насыщенности : 4:2:0
    Битовая глубина : 8 бит
    Тип развёртки : Прогрессивная
    Метод сжатия : С потерями
    Бит/(Пиксели*Кадры) : 0.198
    Размер потока : 656 Мбайт (88%)
    Библиотека кодирования : XviD 1.2.1 (UTC 2008-12-04)
    Аудио
    Идентификатор : 1
    Формат : MPEG Audio
    Версия формата : Version 1
    Профиль формата : Layer 3
    Идентификатор кодека : 55
    Идентификатор кодека/Подсказка : MP3
    Продолжительность : 1 ч. 27 м.
    Вид битрейта : Постоянный
    Битрейт : 128 Кбит/сек
    Каналы : 2 канала
    Частота : 48,0 КГц
    Метод сжатия : С потерями
    Размер потока : 80,4 Мбайт (11%)
    Выравнивание : Соединение по промежуткам
    Продолжительность промежутка : 42 мс. (1,00 видеокадр)
    Время предзагрузки промежутка : 504 мс.
    Библиотека кодирования : LAME3.97
    Настройки программы : -m s -V 4 -q 2 -lowpass 17 -b 128

    Скриншоты

    Скачать .torrent

    Скачать торрент-файл бесплатно и на максимальной скорости!

    Как скачивать? · Что такое торрент? · Рейтинг и ограничения

    !ВНИМАНИЕ!
    Сайт не распространяет и не хранит электронные версии произведений, а занимается лишь лишь предоставлением доступа к создаваемому пользователями каталогу ссылок на торрент-файлы, которые содержат только списки хеш-сумм, убедительная просьба с жалобами обращаться напрямую к пользователю. Файлы для обмена на трекере предоставлены пользователями сайта, и администрация не несёт ответственности за их содержание. Просьба не заливать файлы, защищенные авторскими правами, а также файлы нелегального содержания!


    _________________
    [Профиль] [ЛС]
    Показать сообщения:    
    Ответить на тему

    Текущее время: Сегодня, в 14:41

    Часовой пояс: GMT + 2



    Вы не можете начинать темы
    Вы не можете отвечать на сообщения
    Вы не можете редактировать свои сообщения
    Вы не можете удалять свои сообщения
    Вы не можете голосовать в опросах
    Вы не можете прикреплять файлы к сообщениям
    Вы не можете скачивать файлы