BitTorrentTracker PerecTracker.org
BitTorrentTracker PerecTracker.org
    
Регистрация  ·  Вход
 
 · 
Забыли пароль?

  • Моя фамилия Шилов (Андрей Элинсон) [2013, Россия, боевик, детектив, криминал, HDTVRip]

    Ответить на тему
     
    Автор Сообщение

    Flirldrerve

    Создавать темы 18-Окт-2016 19:30

           

    [Цитировать]

    Моя фамилия Шилов
    Страна: Россия
    Жанр: боевик, детектив, криминал
    Год выпуска: 2013
    Продолжительность: 01:31:59
    Cубтитры: нет-Режиссер: Андрей Элинсон-В ролях: Александр Устюгов, Сергей Перегудов, Мария Синяева, Геннадий Алимпиев, Алексей Федотов, Светлана Смирнова-Описание: После увольнения из ГУВД герой "Ментовских войн" полковник Роман Шилов оказался не у дел и решил использовать внезапно появившееся свободное время для того, чтобы уладить все вопросы с личной жизнью.
    Но встрече с девушкой, с которой он давно мечтал объясниться, помешало известие об исчезновении давнего знакомого Романа - Михаила Краснова, показания которого когда-то помогли отправить за решетку опасного убийцу.
    Шилов отправился в провинциальный городок выручать старого приятеля.--Качество видео: HDTVRip
    Формат видео: AVI
    Видео: 688x384 (1.79:1), 25 fps, XviD build 73 ~1002 kbps avg, 0.15 bit/pixel
    Аудио: 48 kHz, MPEG Layer 3, 2 ch, ~128.00 kbps avg-Скачать сэмпл | КиноПоиск-

    MediaInfo

    Формат                                   : AVI
    Формат/Информация                        : Audio Video Interleave
    Размер файла                             : 745 Мбайт
    Продолжительность                        : 1 ч. 31 м.
    Общий поток                              : 1141 Кбит/сек
    Программа кодирования                    : VirtualDubMod 1.5.10.3 | www.virtualdub-fr.org || (build 2550/release)
    Библиотека кодирования                   : VirtualDubMod build 2550/release
    Видео
    Идентификатор                            : 0
    Формат                                   : MPEG-4 Visual
    Профиль формата                          : Advanced Simple@L5
    Параметр BVOP формата                    : 1
    Параметр QPel формата                    : Нет
    Параметр GMC формата                     : Без точки перехода
    Параметр матрицы формата                 : Выборочная
    Идентификатор кодека                     : XVID
    Идентификатор кодека/Подсказка           : XviD
    Продолжительность                        : 1 ч. 31 м.
    Битрейт                                  : 1003 Кбит/сек
    Ширина                                   : 688 пикселей
    Высота                                   : 384 пикселя
    Соотношение сторон                       : 16:9
    Частота кадров                           : 25,000 кадров/сек
    Цветовое пространство                    : YUV
    Субдискретизация насыщенности            : 4:2:0
    Битовая глубина                          : 8 бит
    Тип развёртки                            : Прогрессивная
    Метод сжатия                             : С потерями
    Бит/(Пиксели*Кадры)                      : 0.152
    Размер потока                            : 655 Мбайт (88%)
    Библиотека кодирования                   : XviD 73
    Аудио
    Идентификатор                            : 1
    Формат                                   : MPEG Audio
    Версия формата                           : Version 1
    Профиль формата                          : Layer 3
    Идентификатор кодека                     : 55
    Идентификатор кодека/Подсказка           : MP3
    Продолжительность                        : 1 ч. 31 м.
    Вид битрейта                             : Постоянный
    Битрейт                                  : 128 Кбит/сек
    Каналы                                   : 2 канала
    Частота                                  : 48,0 КГц
    Метод сжатия                             : С потерями
    Размер потока                            : 83,6 Мбайт (11%)
    Выравнивание                             : Соединение по промежуткам
    Продолжительность промежутка             : 40  мс. (1,00 видеокадр)
    Время предзагрузки промежутка            : 504  мс.
    Библиотека кодирования                   : LAME3.99r
    Настройки программы                      : -m s -V 4 -q 2 -lowpass 17 -b 128

    Скриншоты

    Скачать .torrent

    Скачать торрент-файл бесплатно и на максимальной скорости!

    Как скачивать? · Что такое торрент? · Рейтинг и ограничения

    !ВНИМАНИЕ!
    Сайт не распространяет и не хранит электронные версии произведений, а занимается лишь лишь предоставлением доступа к создаваемому пользователями каталогу ссылок на торрент-файлы, которые содержат только списки хеш-сумм, убедительная просьба с жалобами обращаться напрямую к пользователю. Файлы для обмена на трекере предоставлены пользователями сайта, и администрация не несёт ответственности за их содержание. Просьба не заливать файлы, защищенные авторскими правами, а также файлы нелегального содержания!


    _________________
    [Профиль] [ЛС]
    Показать сообщения:    
    Ответить на тему

    Текущее время: Сегодня, в 14:39

    Часовой пояс: GMT + 2



    Вы не можете начинать темы
    Вы не можете отвечать на сообщения
    Вы не можете редактировать свои сообщения
    Вы не можете удалять свои сообщения
    Вы не можете голосовать в опросах
    Вы не можете прикреплять файлы к сообщениям
    Вы не можете скачивать файлы