BitTorrentTracker PerecTracker.org
BitTorrentTracker PerecTracker.org
    
Регистрация  ·  Вход
 
 · 
Забыли пароль?

  • Капитан Фантастик / Captain Fantastic (Мэтт Росс / Matt Ross) [2016, США, драма, мелодрама, комедия, HDRip] MVO + Sub Eng + Original Eng

    Ответить на тему
     
    Автор Сообщение

    rechyn

    Создавать темы 18-Окт-2016 15:20

           

    [Цитировать]

    Капитан Фантастик / Captain Fantastic
    Страна: США
    Жанр: драма, мелодрама, комедия
    Год выпуска: 2016
    Продолжительность: 01:59:29
    Перевод: Профессиональный (многоголосый закадровый)
    Cубтитры: английские
    Оригинальная аудиодорожка: английский-Режиссер: Мэтт Росс / Matt Ross-В ролях: Вигго Мортенсен, Джордж МакКэй, Саманта Ислер, Анналиса Бассо, Николас Хэмилтон, Шри Крукс, Чарли Шотуэлл, Трин Миллер, Кэтрин Хан, Стив Зан-Описание: Они говорят на нескольких языках, знают квантовую физику и разбираются в философии. Они умеют охотиться и обращаться с оружием. Они живут в лесу в полной гармонии с природой. Лишь стечение обстоятельств заставляет их покинуть родной дом и отправиться в большой город. Что будет, когда они столкнутся с цивилизацией, когда на них обрушится первая любовь и мир гаджетов и социальных сетей?--Качество видео: HDRip
    Формат видео: AVI
    Видео: 720x304 (2.37:1), 23.976 fps, XviD build 73 ~1839 kbps avg, 0.35 bit/pixel
    Аудио 1: 48 kHz, AC3 Dolby Digital, 3/2 (L,C,R,l,r) + LFE ch, ~384 kbps | RUS
    Аудио 2: 48 kHz, AC3 Dolby Digital, 3/2 (L,C,R,l,r) + LFE ch, ~384 kbps | ENG-Скачать сэмпл-

    MediaInfo

    Формат                                   : AVI
    Формат/Информация                        : Audio Video Interleave
    Профиль формата                          : OpenDML
    Размер файла                             : 2,18 Гбайт
    Продолжительность                        : 1 ч. 59 м.
    Общий поток                              : 2614 Кбит/сек
    Программа кодирования                    : VirtualDubMod 1.5.10.2 (build 2542/release)
    Библиотека кодирования                   : VirtualDubMod build 2542/release
    Видео
    Идентификатор                            : 0
    Формат                                   : MPEG-4 Visual
    Профиль формата                          : Advanced Simple@L5
    Параметр BVOP формата                    : 1
    Параметр QPel формата                    : Нет
    Параметр GMC формата                     : Без точки перехода
    Параметр матрицы формата                 : Default (MPEG)
    Идентификатор кодека                     : XVID
    Идентификатор кодека/Подсказка           : XviD
    Продолжительность                        : 1 ч. 59 м.
    Битрейт                                  : 1829 Кбит/сек
    Ширина                                   : 720 пикселей
    Высота                                   : 304 пикселя
    Соотношение сторон                       : 2,35:1
    Частота кадров                           : 23,976 (23976/1000) кадра/сек
    Цветовое пространство                    : YUV
    Субдискретизация насыщенности            : 4:2:0
    Битовая глубина                          : 8 бит
    Тип развёртки                            : Прогрессивная
    Метод сжатия                             : С потерями
    Бит/(Пиксели*Кадры)                      : 0.348
    Размер потока                            : 1,53 Гбайт (70%)
    Библиотека кодирования                   : XviD 73
    Аудио #1
    Идентификатор                            : 1
    Формат                                   : AC-3
    Формат/Информация                        : Audio Coding 3
    Расширение режима                        : CM (complete main)
    Параметр Endianness формата              : Big
    Идентификатор кодека                     : 2000
    Продолжительность                        : 1 ч. 59 м.
    Вид битрейта                             : Постоянный
    Битрейт                                  : 384 Кбит/сек
    Каналы                                   : 6 каналов
    Расположение каналов                     : Front: L C R, Side: L R, LFE
    Частота                                  : 48,0 КГц
    Частота кадров                           : 31,250 кадров/сек (1536 spf)
    Метод сжатия                             : С потерями
    Размер потока                            : 328 Мбайт (15%)
    Выравнивание                             : Разделение по промежуткам
    Продолжительность промежутка             : 42  мс. (1,00 видеокадр)
    Время предзагрузки промежутка            : 500  мс.
    Аудио #2
    Идентификатор                            : 2
    Формат                                   : AC-3
    Формат/Информация                        : Audio Coding 3
    Расширение режима                        : CM (complete main)
    Параметр Endianness формата              : Big
    Идентификатор кодека                     : 2000
    Продолжительность                        : 1 ч. 59 м.
    Вид битрейта                             : Постоянный
    Битрейт                                  : 384 Кбит/сек
    Каналы                                   : 6 каналов
    Расположение каналов                     : Front: L C R, Side: L R, LFE
    Частота                                  : 48,0 КГц
    Частота кадров                           : 31,250 кадров/сек (1536 spf)
    Метод сжатия                             : С потерями
    Размер потока                            : 328 Мбайт (15%)
    Выравнивание                             : Разделение по промежуткам
    Продолжительность промежутка             : 42  мс. (1,00 видеокадр)
    Время предзагрузки промежутка            : 500  мс.

    Скриншоты

    Скачать .torrent

    Скачать торрент-файл бесплатно и на максимальной скорости!

    Как скачивать? · Что такое торрент? · Рейтинг и ограничения

    !ВНИМАНИЕ!
    Сайт не распространяет и не хранит электронные версии произведений, а занимается лишь лишь предоставлением доступа к создаваемому пользователями каталогу ссылок на торрент-файлы, которые содержат только списки хеш-сумм, убедительная просьба с жалобами обращаться напрямую к пользователю. Файлы для обмена на трекере предоставлены пользователями сайта, и администрация не несёт ответственности за их содержание. Просьба не заливать файлы, защищенные авторскими правами, а также файлы нелегального содержания!


    _________________
    [Профиль] [ЛС]
    Показать сообщения:    
    Ответить на тему

    Текущее время: Сегодня, в 23:10

    Часовой пояс: GMT + 2



    Вы не можете начинать темы
    Вы не можете отвечать на сообщения
    Вы не можете редактировать свои сообщения
    Вы не можете удалять свои сообщения
    Вы не можете голосовать в опросах
    Вы не можете прикреплять файлы к сообщениям
    Вы не можете скачивать файлы