BitTorrentTracker PerecTracker.org
BitTorrentTracker PerecTracker.org
    
Регистрация  ·  Вход
 
 · 
Забыли пароль?

  • Капитан Фантастик / Captain Fantastic (Мэтт Росс / Matt Ross) [2016, США, драма, мелодрама, комедия, BDRip-AVC] MVO + Original + Sub (eng)

    Ответить на тему
     
    Автор Сообщение

    rechyn

    Создавать темы 18-Окт-2016 15:20

           

    [Цитировать]

    Капитан Фантастик / Captain Fantastic«Он подготовил их ко всему, кроме настоящей жизни»-Страна: США
    Жанр: драма, мелодрама, комедия
    Год выпуска: 2016
    Продолжительность: 01:59:29
    Перевод: Профессиональный (многоголосый, закадровый) (iTunes)
    Оригинальная аудиодорожка: английский
    Субтитры: английские (полные, SDH)
    Навигация по главам: есть
    Режиссер: Мэтт Росс / Matt Ross
    В ролях: Вигго Мортенсен (Ben), Джордж МакКэй (Bo), Саманта Ислер (Kielyr), Анналиса Бассо (Vespyr), Николас Хэмилтон (Rellian), Шри Крукс (Zaja), Чарли Шотуэлл (Nai), Трин Миллер (Leslie), Кэтрин Хан (Harper), Стив Зан (Dave), Элайджа Стивенсон (Justin), Тедди Ван Ии (Jackson)
    Описание: Они говорят на нескольких языках, знают квантовую физику и разбираются в философии. Они умеют охотиться и обращаться с оружием. Они живут в лесу в полной гармонии с природой. Лишь стечение обстоятельств заставляет их покинуть родной дом и отправиться в большой город. Что будет, когда они столкнутся с цивилизацией, когда на них обрушится первая любовь и мир гаджетов и социальных сетей?- -Качество: BDRip-AVC (исходник - BDRemux|Captain.Fantastic.2016.1080p.BluRay.REMUX.AVC.DTS-HD.MA.5.1-FGT)
    Формат видео: MKV
    Видео: x264, 1080x450 (2.40:1), 23,976 fps, ~1845 kbps, 0.158 bit/pixel
    Аудио 1: 48 kHz, AC3 Dolby Digital, 3/2 (L,C,R,l,r) + LFE ch, ~384 kbps [русский]
    Аудио 2: 48 kHz, AC3 Dolby Digital, 3/2 (L,C,R,l,r) + LFE ch, ~384 kbps [английский]
    Формат субтитров: softsub (SRT)-MediaInfo | x264 log
    Format : Matroska
    Format version : Version 4 / Version 2
    File size : 2.23 GiB
    Duration : 1 h 59 min
    Overall bit rate : 2 666 kb/s
    Movie name : Капитан Фантастик / Captain Fantastic (2016) :: AFM ::
    Encoded date : UTC 2016-10-17 00:16:06
    Writing application : mkvmerge v8.3.0 ('Over the Horizon') 32bit
    Writing library : libebml v1.3.1 + libmatroska v1.4.2
    Video
    ID : 1
    Format : AVC
    Format/Info : Advanced Video Codec
    Format profile : High@L4.1
    Format settings, CABAC : Yes
    Format settings, ReFrames : 11 frames
    Codec ID : V_MPEG4/ISO/AVC
    Duration : 1 h 59 min
    Bit rate : 1 845 kb/s
    Width : 1 080 pixels
    Height : 450 pixels
    Display aspect ratio : 2.40:1
    Frame rate mode : Constant
    Frame rate : 23.976 (24000/1001) FPS
    Color space : YUV
    Chroma subsampling : 4:2:0
    Bit depth : 8 bits
    Scan type : Progressive
    Bits/(Pixel*Frame) : 0.158
    Stream size : 1.54 GiB (69%)
    Title : BDRip by AFM
    Writing library : x264 core 148 r2721+55 e19946b t_mod_Custom [8-bit@all X86_64]
    Encoding settings : cabac=1 / ref=11 / deblock=1:-2:-2 / analyse=0x3:0x133 / me=umh / subme=10 / psy=1 / fade_compensate=0.00 / psy_rd=1.00:0.00 / mixed_ref=1 / me_range=32 / chroma_me=1 / trellis=2 / 8x8dct=1 / cqm=0 / deadzone=21,11 / fast_pskip=0 / chroma_qp_offset=-2 / threads=6 / lookahead_threads=1 / sliced_threads=0 / nr=0 / decimate=1 / interlaced=0 / bluray_compat=0 / constrained_intra=0 / fgo=0 / bframes=13 / b_pyramid=2 / b_adapt=2 / b_bias=0 / direct=1 / weightb=1 / open_gop=0 / weightp=2 / keyint=240 / keyint_min=23 / scenecut=40 / intra_refresh=0 / rc_lookahead=40 / rc=crf / mbtree=0 / crf=18.7000 / qcomp=0.65 / qpmin=0:0:0 / qpmax=69:69:69 / qpstep=4 / vbv_maxrate=50000 / vbv_bufsize=62500 / crf_max=0.0 / nal_hrd=none / filler=0 / ip_ratio=1.35 / pb_ratio=1.30 / aq=3:0.80 / aq-sensitivity=10.00 / aq-factor=1.00:1.00:1.00 / aq2=0 / aq3=0 / zones=162254,171892,q=30
    Language : English
    Default : Yes
    Forced : No
    Audio #1
    ID : 2
    Format : AC-3
    Format/Info : Audio Coding 3
    Mode extension : CM (complete main)
    Format settings, Endianness : Big
    Codec ID : A_AC3
    Duration : 1 h 59 min
    Bit rate mode : Constant
    Bit rate : 384 kb/s
    Channel(s) : 6 channels
    Channel positions : Front: L C R, Side: L R, LFE
    Sampling rate : 48.0 kHz
    Frame rate : 31.250 FPS (1536 spf)
    Compression mode : Lossy
    Stream size : 328 MiB (14%)
    Title : MVO, AC3 5.1 ~384 kbps
    Language : Russian
    Default : Yes
    Forced : No
    Audio #2
    ID : 3
    Format : AC-3
    Format/Info : Audio Coding 3
    Mode extension : CM (complete main)
    Format settings, Endianness : Big
    Codec ID : A_AC3
    Duration : 1 h 59 min
    Bit rate mode : Constant
    Bit rate : 384 kb/s
    Channel(s) : 6 channels
    Channel positions : Front: L C R, Side: L R, LFE
    Sampling rate : 48.0 kHz
    Frame rate : 31.250 FPS (1536 spf)
    Compression mode : Lossy
    Stream size : 328 MiB (14%)
    Title : Original, AC3 5.1 ~384 kbps
    Language : English
    Default : No
    Forced : No
    Text #1
    ID : 4
    Format : UTF-8
    Codec ID : S_TEXT/UTF8
    Codec ID/Info : UTF-8 Plain Text
    Language : English
    Default : No
    Forced : No
    Text #2
    ID : 5
    Format : UTF-8
    Codec ID : S_TEXT/UTF8
    Codec ID/Info : UTF-8 Plain Text
    Title : SDH
    Language : English
    Default : No
    Forced : No
    Menu
    00:00:00.000 : en:Chapter 01
    00:05:14.272 : en:Chapter 02
    00:11:11.879 : en:Chapter 03
    00:17:34.220 : en:Chapter 04
    00:25:20.728 : en:Chapter 05
    00:31:36.895 : en:Chapter 06
    00:37:41.509 : en:Chapter 07
    00:40:25.548 : en:Chapter 08
    00:46:10.601 : en:Chapter 09
    00:54:03.449 : en:Chapter 10
    00:59:34.696 : en:Chapter 11
    01:08:21.431 : en:Chapter 12
    01:14:08.486 : en:Chapter 13
    01:20:18.647 : en:Chapter 14
    01:24:30.774 : en:Chapter 15
    01:30:19.331 : en:Chapter 16
    01:36:52.807 : en:Chapter 17
    01:43:03.719 : en:Chapter 18
    01:48:23.163 : en:Chapter 19
    01:52:47.344 : en:Chapter 20

    x264

    x264 [info]: frame I:1466 Avg QP:17.85 size: 56887
    x264 [info]: frame P:36341 Avg QP:19.15 size: 21702
    x264 [info]: frame B:134085 Avg QP:21.31 size: 6170
    x264 [info]: consecutive B-frames: 1.9% 2.6% 6.1% 25.7% 17.6% 28.7% 6.3% 3.7% 2.0% 1.1% 1.0% 1.1% 0.4% 1.9%
    x264 [info]: mb I I16..4: 6.9% 74.6% 18.5%
    x264 [info]: mb P I16..4: 1.0% 10.8% 2.3% P16..4: 39.7% 21.8% 15.8% 0.6% 0.2% skip: 7.9%
    x264 [info]: mb B I16..4: 0.1% 0.9% 0.3% B16..8: 40.0% 10.4% 2.6% direct: 4.3% skip:41.6% L0:43.1% L1:45.3% BI:11.6%
    x264 [info]: 8x8 transform intra:75.3% inter:69.0%
    x264 [info]: coded y,uvDC,uvAC intra: 81.0% 85.5% 63.0% inter: 20.4% 17.2% 2.7%
    x264 [info]: i16 v,h,dc,p: 39% 16% 8% 37%
    x264 [info]: i8 v,h,dc,ddl,ddr,vr,hd,vl,hu: 19% 10% 7% 8% 12% 12% 11% 11% 11%
    x264 [info]: i4 v,h,dc,ddl,ddr,vr,hd,vl,hu: 29% 7% 4% 7% 12% 12% 10% 9% 9%
    x264 [info]: i8c dc,h,v,p: 36% 24% 23% 17%
    x264 [info]: Weighted P-Frames: Y:4.8% UV:3.0%
    x264 [info]: ref P L0: 49.5% 12.0% 14.6% 6.1% 4.8% 3.5% 3.1% 1.8% 1.7% 1.4% 1.4% 0.1% 0.0%
    x264 [info]: ref B L0: 76.5% 9.6% 5.0% 2.6% 2.0% 1.5% 1.2% 0.8% 0.5% 0.2%
    x264 [info]: ref B L1: 94.6% 5.4%
    x264 [info]: kb/s:1896.24

    Скриншоты

    с названием

    Скачать .torrent

    Скачать торрент-файл бесплатно и на максимальной скорости!

    Как скачивать? · Что такое торрент? · Рейтинг и ограничения

    !ВНИМАНИЕ!
    Сайт не распространяет и не хранит электронные версии произведений, а занимается лишь лишь предоставлением доступа к создаваемому пользователями каталогу ссылок на торрент-файлы, которые содержат только списки хеш-сумм, убедительная просьба с жалобами обращаться напрямую к пользователю. Файлы для обмена на трекере предоставлены пользователями сайта, и администрация не несёт ответственности за их содержание. Просьба не заливать файлы, защищенные авторскими правами, а также файлы нелегального содержания!


    _________________
    [Профиль] [ЛС]
    Показать сообщения:    
    Ответить на тему

    Текущее время: Сегодня, в 19:06

    Часовой пояс: GMT + 2



    Вы не можете начинать темы
    Вы не можете отвечать на сообщения
    Вы не можете редактировать свои сообщения
    Вы не можете удалять свои сообщения
    Вы не можете голосовать в опросах
    Вы не можете прикреплять файлы к сообщениям
    Вы не можете скачивать файлы