BitTorrentTracker PerecTracker.org
BitTorrentTracker PerecTracker.org
    
Регистрация  ·  Вход
 
 · 
Забыли пароль?

  • Мохенджо Даро / Mohenjo Daro (Ашутош Говарикер / Ashutosh Gowariker) [2016, Индия, Приключения, история, драма, WEB-DLRip] MVO

    Ответить на тему
     
    Автор Сообщение

    rechyn

    Создавать темы 18-Окт-2016 11:10

           

    [Цитировать]

    Мохенджо Даро / Mohenjo Daro
    Страна: Индия
    Жанр: Драма
    Год выпуска: 2016
    Продолжительность: 02:48:22-Перевод: Любительский (многоголосый закадровый) - Денис Строев, Михаил Цареградский, Давид Петросян, Маргарита Сахно
    Субтитры: Нет-Режиссер: Ашутош Говарикер / Ashutosh Gowariker-В ролях: Ритик Рошан, Кабир Беди, Арунодай Сингх, Пуджа Хегде, Кишори Шахан, Сухасини Мулай, Нитиш Бхарадвадж-Описание: 2016 год до н.э. В центре сюжета - история любви простого деревенского парня Сармана и городской красавицы Чани, разворачивающейся на фоне развития древней цивилизации долины Инда...
    | -Качество видео: WEB-DLRip
    Формат видео: AVI-Видео: 720x304 (2.37:1), 25 fps, XviD build 50 ~1704 kbps avg, 0.31 bit/pixel
    Аудио: 48 kHz, MPEG Layer 3, 2 ch, ~160.00 kbps-Релиз от: и
    Озвучка: Денис Строев, Михаил Цареградский, Давид Петросян, Маргарита Сахно
    Перевод и редакция: ❖ Honey&Haseena ❖
    Рип: soso4eg-Фильм переведён и озвучен по специальному заказу Fatima Valverde для группы Индийское кино - Болливуд и Юг-Сэмпл / Sample-
    -
    -

    Скриншот с названием

    Скриншоты


    -

    MI

    General
    Complete name : H:\[Релизы]\Mohenjo.Daro.2016.L.WEB-DLRip.XviD.BwTorrents.avi
    Format : AVI
    Format/Info : Audio Video Interleave
    Format profile : OpenDML
    File size : 2.20 GiB
    Duration : 2h 48mn
    Overall bit rate : 1 872 Kbps
    Writing application : VirtualDubMod 1.5.10.2 (build 2540/release)
    Video
    ID : 0
    Format : MPEG-4 Visual
    Format profile : Advanced Simple@L5
    Format settings, BVOP : 1
    Format settings, QPel : No
    Format settings, GMC : No warppoints
    Format settings, Matrix : Default (H.263)
    Codec ID : XVID
    Codec ID/Hint : XviD
    Duration : 2h 48mn
    Bit rate : 1 699 Kbps
    Width : 720 pixels
    Height : 304 pixels
    Display aspect ratio : 2.35:1
    Frame rate : 25.000 fps
    Color space : YUV
    Chroma subsampling : 4:2:0
    Bit depth : 8 bits
    Scan type : Progressive
    Compression mode : Lossy
    Bits/(Pixel*Frame) : 0.311
    Stream size : 2.00 GiB (91%)
    Writing library : XviD 1.2.1 (UTC 2008-12-04)
    Audio
    ID : 1
    Format : MPEG Audio
    Format version : Version 1
    Format profile : Layer 3
    Mode : Joint stereo
    Codec ID : 55
    Codec ID/Hint : MP3
    Duration : 2h 48mn
    Bit rate mode : Constant
    Bit rate : 160 Kbps
    Channel(s) : 2 channels
    Sampling rate : 48.0 KHz
    Compression mode : Lossy
    Stream size : 193 MiB (9%)
    Alignment : Aligned on interleaves
    Interleave, duration : 40 ms (1.00 video frame)
    Interleave, preload duratio : 504 ms
    Writing library : LAME3.90.3
    -
    Скачать .torrent

    Скачать торрент-файл бесплатно и на максимальной скорости!

    Как скачивать? · Что такое торрент? · Рейтинг и ограничения

    !ВНИМАНИЕ!
    Сайт не распространяет и не хранит электронные версии произведений, а занимается лишь лишь предоставлением доступа к создаваемому пользователями каталогу ссылок на торрент-файлы, которые содержат только списки хеш-сумм, убедительная просьба с жалобами обращаться напрямую к пользователю. Файлы для обмена на трекере предоставлены пользователями сайта, и администрация не несёт ответственности за их содержание. Просьба не заливать файлы, защищенные авторскими правами, а также файлы нелегального содержания!


    _________________
    [Профиль] [ЛС]
    Показать сообщения:    
    Ответить на тему

    Текущее время: Сегодня, в 08:10

    Часовой пояс: GMT + 2



    Вы не можете начинать темы
    Вы не можете отвечать на сообщения
    Вы не можете редактировать свои сообщения
    Вы не можете удалять свои сообщения
    Вы не можете голосовать в опросах
    Вы не можете прикреплять файлы к сообщениям
    Вы не можете скачивать файлы