BitTorrentTracker PerecTracker.org
BitTorrentTracker PerecTracker.org
    
Регистрация  ·  Вход
 
 · 
Забыли пароль?

  • [ATV3] Стартрек: Бесконечность / Star Trek Beyond (Джастин Лин / Justin Lin ) [2016, США, Фантастика, боевик, триллер, приключения, WEB-DL, HD (1080p)] DUB + Original + sub (rus, eng)

    Ответить на тему
     
    Автор Сообщение

    rechyn

    Создавать темы 18-Окт-2016 06:50

           

    [Цитировать]

    Стартрек: Бесконечность / Star Trek Beyond
    «Fifty year. One legacy»
    7.087 / 10 7.30 / 10
    -Год выпуска: 2016
    Страна: США
    Жанр: Фантастика, боевик, триллер, приключения
    Продолжительность: 02:02:29
    Перевод: Дублированный (iTunes)
    Оригинальная аудиодорожка: Есть
    Cубтитры: Русские форсированные, Английские форсированные, Русские
    Режиссёр: Джастин Лин
    Сценарий: Саймон Пегг, Даг Джанг, Джин Родденберри
    Продюсер: Джей Джей Абрамс, Брайан Берк, Джастин Лин
    Оператор: Стивен Ф. Уиндон
    Композитор: Майкл Джаккино
    Художник: Томас Е. Сандерс, Салим Алразук, Стив Кристенсен
    Монтаж: Грег Д’Аурия, Дилан Хигсмит, Келли Мацумото
    В ролях: Крис Пайн, Закари Куинто, Саймон Пегг, Карл Урбан, Зои Салдана, Джон Чо, Антон Ельчин, Идрис Эльба, София Бутелла, Джо Таслим
    Бюджет: $185 000 000
    Сборы в США: $158 804 470
    Сборы в мире: + $179 401 212 = $338 205 682
    Сборы в России: $6 514 324
    Мировая премьера: 20 июля 2016
    Премьера (РФ): 21 июля 2016, «Централ Партнершип»
    Описание: Бесстрашная команда крейсера Звездного Флота «Энтерпрайз» исследует неизведанные глубины космоса. Во время этого полного опасностей путешествия герои сталкиваются с таинственной силой, ставящей под угрозу не только их миссию и стабильность Федерации, но и весь миропорядок.-Качество исходника: WEB-DL 1080p (HDClub)
    Качество: WEB-DL
    Тип: HD (1080p)
    Контейнер: M4V
    Видео: H.264, 1912x800, 2.40:1, 4 555 Kbps, 23.976 fps
    Аудио 1: Русский/Дублированный (iTunes), AAC / 2.0 / 160 Kbps / 48.0 KHz
    Аудио 2: Английский/Оригинальная дорожка , AAC / 2.0 / 160 Kbps / 48.0 KHz
    Аудио 3: Русский/Дублированный (iTunes), AC-3 / 5.1 / 384 Kbps / 48.0 KHz
    Аудио 4: Английский/Оригинальная дорожка , AC-3 / 5.1 / 384 Kbps / 48.0 KHz
    Субтитры 1: Русские форсированные
    Субтитры 2: Английские форсированные
    Субтитры 3: Русские полные
    -

    iTunes Meta Tags

    Sort Name: Star Trek Beyond
    XID: Apple:vendor_id:2016-734349
    contentID: 1128456722
    Copyright: © MMXVI Paramount Pictures Corporation. All rights Reserved.
    Screenwriters: Саймон Пегг, Даг Джанг, Джин Родденберри
    Producers: Джей Джей Абрамс, Брайан Берк, Джастин Лин
    Director: Джастин Лин
    Cast: Крис Пайн, Закари Куинто, Саймон Пегг, Карл Урбан, Зои Салдана, Джон Чо, Антон Ельчин, Идрис Эльба, София Бутелла, Джо Таслим, Александр Коврижных, Пётр Иващенко, Борис Шувалов, Михаил Белякович, Полина Щербакова
    Studio: Paramount
    Rating: 4
    Long Description: Бесстрашная команда крейсера Звездного Флота \"Энтерпрайз\" исследует неизведанные глубины космоса. Во время этого полного опасностей путешествия герои сталкиваются с таинственной силой, ставящей под угрозу не только их миссию и стабильность Федерации, но и весь миропорядок.
    Description: Бесстрашная команда крейсера Звездного Флота \"Энтерпрайз\" исследует неизведанные глубины космоса. Во время этого полного опасностей путешествия герои сталкиваются с таинственной силой, ставящей под угрозу не только их миссию и стабильность Федерации, но и весь миропорядок.
    Release Date: 2016-07-20T08:00:00Z
    Genre: Sci-Fi & Fantasy
    Artist: Justin Lin
    Name: Star Trek Beyond

    MediaInfo

    General
    Complete name : /Users/imac/HandBrake/Star.Trek.Beyond.WEB-DL.1080p.m4v
    Format : MPEG-4
    Codec ID : M4V
    File size : 4.83 GiB
    Duration : 2h 2mn
    Overall bit rate mode : Variable
    Overall bit rate : 5 647 Kbps
    Movie name : Star Trek Beyond
    Performer : Justin Lin
    Director : Джастин Лин
    Actor : Крис Пайн / Закари Куинто / Саймон Пегг / Карл Урбан / Зои Салдана / Джон Чо / Антон Ельчин / Идрис Эльба / София Бутелла / Джо Таслим / Александр Коврижных / Пётр Иващенко / Борис Шувалов / Михаил Белякович / Полина Щербакова
    Screenplay by : Саймон Пегг / Даг Джанг / Джин Родденберри
    Producer : Джей Джей Абрамс / Брайан Берк / Джастин Лин
    Production studio : Paramount
    Genre : Sci-Fi & Fantasy
    ContentType : Short Film
    Description : Бесстрашная команда крейсера Звездного Флота \"Энтерпрайз\" исследует неизведанные глубины космоса. Во время этого полного опасностей путешествия герои сталкиваются с таинственной силой, ставящей под угрозу не только их миссию и стабильность Федерации, но и весь миропорядок.
    Recorded date : UTC 2016-07-20 08:00:00
    Encoded date : UTC 2016-10-17 22:49:40
    Tagged date : UTC 2016-10-17 22:51:24
    Copyright : © MMXVI Paramount Pictures Corporation. All rights Reserved.
    Cover : Yes
    Rating : None
    Title/Sort : Star Trek Beyond
    LongDescription : Бесстрашная команда крейсера Звездного Флота \"Энтерпрайз\" исследует неизведанные глубины космоса. Во время этого полного опасностей путешествия герои сталкиваются с таинственной силой, ставящей под угрозу не только их миссию и стабильность Федерации, но и весь миропорядок.
    AppleStoreCatalogID : 1128456722
    Vendor : Apple:vendor_id:2016-734349
    ContentRating : mpaa|PG-13|300|
    Video #1
    ID : 1
    Format : AVC
    Format/Info : Advanced Video Codec
    Format profile : High@L4
    Format settings, CABAC : Yes
    Format settings, ReFrames : 5 frames
    Codec ID : avc1
    Codec ID/Info : Advanced Video Coding
    Duration : 2h 2mn
    Bit rate : 4 555 Kbps
    Width : 1 912 pixels
    Height : 800 pixels
    Display aspect ratio : 2.40:1
    Frame rate mode : Variable
    Frame rate : 23.976 fps
    Minimum frame rate : 23.810 fps
    Maximum frame rate : 24.390 fps
    Color space : YUV
    Chroma subsampling : 4:2:0
    Bit depth : 8 bits
    Scan type : Progressive
    Bits/(Pixel*Frame) : 0.124
    Stream size : 3.89 GiB (81%)
    Title : Main Program
    Language : English
    Encoded date : UTC 2016-10-17 22:49:40
    Tagged date : UTC 2016-10-17 22:49:49
    Color range : Limited
    Color primaries : BT.709
    Transfer characteristics : BT.709
    Matrix coefficients : BT.709
    Video #2
    ID : 10
    Format : JPEG
    Codec ID : jpeg
    Duration : 2h 2mn
    Bit rate mode : Variable
    Bit rate : 508 bps
    Width : 640 pixels
    Height : 267 pixels
    Display aspect ratio : 2.40:1
    Frame rate mode : Variable
    Frame rate : 0.002 fps
    Minimum frame rate : 0.001 fps
    Maximum frame rate : 0.005 fps
    Color space : YUV
    Chroma subsampling : 4:2:0
    Bit depth : 8 bits
    Compression mode : Lossy
    Bits/(Pixel*Frame) : 1.486
    Stream size : 434 KiB (0%)
    Title : Chapter Images
    Language : English
    Encoded date : UTC 2016-10-17 22:49:57
    Tagged date : UTC 2016-10-17 22:49:57
    Audio #1
    ID : 2
    Format : AAC
    Format/Info : Advanced Audio Codec
    Format profile : LC
    Codec ID : 40
    Duration : 2h 2mn
    Bit rate mode : Variable
    Bit rate : 157 Kbps
    Maximum bit rate : 241 Kbps
    Channel(s) : 2 channels
    Channel positions : Front: L R
    Sampling rate : 48.0 KHz
    Compression mode : Lossy
    Stream size : 138 MiB (3%)
    Title : Russian Stereo
    Language : Russian
    Encoded date : UTC 2016-10-17 22:49:40
    Tagged date : UTC 2016-10-17 22:49:51
    Audio #2
    ID : 3
    Format : AAC
    Format/Info : Advanced Audio Codec
    Format profile : LC
    Codec ID : 40
    Duration : 2h 2mn
    Bit rate mode : Variable
    Bit rate : 156 Kbps
    Maximum bit rate : 258 Kbps
    Channel(s) : 2 channels
    Channel positions : Front: L R
    Sampling rate : 48.0 KHz
    Compression mode : Lossy
    Stream size : 136 MiB (3%)
    Title : English Stereo
    Language : English
    Encoded date : UTC 2016-10-17 22:49:40
    Tagged date : UTC 2016-10-17 22:49:51
    Audio #3
    ID : 4
    Format : AC-3
    Format/Info : Audio Coding 3
    Mode extension : CM (complete main)
    Format settings, Endianness : Big
    Codec ID : ac-3
    Duration : 2h 2mn
    Bit rate mode : Constant
    Bit rate : 384 Kbps
    Channel(s) : 6 channels
    Channel positions : Front: L C R, Side: L R, LFE
    Sampling rate : 48.0 KHz
    Bit depth : 16 bits
    Compression mode : Lossy
    Stream size : 336 MiB (7%)
    Title : Russian DD 5.1
    Language : Russian
    Encoded date : UTC 2016-10-17 22:49:40
    Tagged date : UTC 2016-10-17 22:49:49
    Audio #4
    ID : 5
    Format : AC-3
    Format/Info : Audio Coding 3
    Mode extension : CM (complete main)
    Format settings, Endianness : Big
    Codec ID : ac-3
    Duration : 2h 2mn
    Bit rate mode : Constant
    Bit rate : 384 Kbps
    Channel(s) : 6 channels
    Channel positions : Front: L C R, Side: L R, LFE
    Sampling rate : 48.0 KHz
    Bit depth : 16 bits
    Compression mode : Lossy
    Stream size : 336 MiB (7%)
    Title : English DD 5.1
    Language : English
    Encoded date : UTC 2016-10-17 22:49:40
    Tagged date : UTC 2016-10-17 22:49:49
    Text #1
    ID : 6
    Format : Timed Text
    Muxing mode : sbtl
    Codec ID : tx3g
    Duration : 1h 55mn
    Bit rate mode : Variable
    Bit rate : 1 bps
    Stream size : 1.19 KiB (0%)
    Title : Russian Forced, iTunes
    Language : Russian
    Encoded date : UTC 2016-10-17 22:49:40
    Tagged date : UTC 2016-10-17 22:49:49
    Text #2
    ID : 7
    Format : Timed Text
    Muxing mode : sbtl
    Codec ID : tx3g
    Duration : 1h 20mn
    Bit rate mode : Variable
    Bit rate : 1 bps
    Stream size : 423 Bytes (0%)
    Title : English Forced, iTunes
    Language : English
    Encoded date : UTC 2016-10-17 22:49:40
    Tagged date : UTC 2016-10-17 22:49:49
    Text #3
    ID : 8
    Format : Timed Text
    Muxing mode : sbtl
    Codec ID : tx3g
    Duration : 1h 55mn
    Bit rate mode : Variable
    Bit rate : 85 bps
    Stream size : 72.1 KiB (0%)
    Title : Russian iTunes
    Language : Russian
    Encoded date : UTC 2016-10-17 22:49:40
    Tagged date : UTC 2016-10-17 22:49:49
    Menu #1
    00:00:00.000 : Chapter 1
    00:08:25.000 : Chapter 2
    00:16:10.000 : Chapter 3
    00:32:37.000 : Chapter 4
    00:42:15.000 : Chapter 5
    00:52:21.000 : Chapter 6
    00:59:48.999 : Chapter 7
    01:12:04.000 : Chapter 8
    01:22:33.000 : Chapter 9
    01:33:00.000 : Chapter 10
    01:40:32.000 : Chapter 11
    01:47:38.000 : Chapter 12
    01:52:31.000 : Chapter 13
    01:55:40.000 : Chapter 14
    Menu #2
    ID : 9
    Codec ID : text
    Duration : 2h 2mn
    Language : English
    Encoded date : UTC 2016-10-17 22:49:52
    Tagged date : UTC 2016-10-17 22:49:52
    00:00:00.000 : Chapter 1
    00:08:25.000 : Chapter 2
    00:16:10.000 : Chapter 3
    00:32:37.000 : Chapter 4
    00:42:15.000 : Chapter 5
    00:52:21.000 : Chapter 6
    00:59:48.999 : Chapter 7
    01:12:04.000 : Chapter 8
    01:22:33.000 : Chapter 9
    01:33:00.000 : Chapter 10
    01:40:32.000 : Chapter 11
    01:47:38.000 : Chapter 12
    01:52:31.000 : Chapter 13
    01:55:40.000 : Chapter 14
    Bit rate mode : VBR

    Скриншоты

    -

    Релиз подготовлен для просмотра на Apple TV, iPad, iPhone, iPod Touch.
    Для просмотра данного релиза на компьютере с ОС Windows рекомендуется использовать VLC media player
    Скачать .torrent

    Скачать торрент-файл бесплатно и на максимальной скорости!

    Как скачивать? · Что такое торрент? · Рейтинг и ограничения

    !ВНИМАНИЕ!
    Сайт не распространяет и не хранит электронные версии произведений, а занимается лишь лишь предоставлением доступа к создаваемому пользователями каталогу ссылок на торрент-файлы, которые содержат только списки хеш-сумм, убедительная просьба с жалобами обращаться напрямую к пользователю. Файлы для обмена на трекере предоставлены пользователями сайта, и администрация не несёт ответственности за их содержание. Просьба не заливать файлы, защищенные авторскими правами, а также файлы нелегального содержания!


    _________________
    [Профиль] [ЛС]
    Показать сообщения:    
    Ответить на тему

    Текущее время: Сегодня, в 08:13

    Часовой пояс: GMT + 2



    Вы не можете начинать темы
    Вы не можете отвечать на сообщения
    Вы не можете редактировать свои сообщения
    Вы не можете удалять свои сообщения
    Вы не можете голосовать в опросах
    Вы не можете прикреплять файлы к сообщениям
    Вы не можете скачивать файлы