BitTorrentTracker PerecTracker.org
BitTorrentTracker PerecTracker.org
    
Регистрация  ·  Вход
 
 · 
Забыли пароль?

  • Разная ложь / Separate Lies (Джулиан Феллоуз / Julian Fellowes) [2005, Великобритания, триллер, драма, HDTV 1080i] Dub (SDI Media)

    Ответить на тему
     
    Автор Сообщение

    Light

    Создавать темы 18-Окт-2016 02:40

           

    [Цитировать]

    Разная ложь
    Separate Lies

    Страна: Великобритания
    Жанр: триллер, драма
    Год выпуска: 2005
    Продолжительность: 01:21:14
    -
    Перевод: Профессиональный (дублированный) SDI Media
    Cубтитры: нет
    Оригинальная аудиодорожка: нет
    -
    Режиссер: Джулиан Феллоуз / Julian Fellowes
    В ролях: Том Уилкинсон, Эмили Уотсон, Гермиона Норрис, Джон Уэрнэби, Руперт Эверетт, Риченда Кэри, Линда Бэссет, Кристин Лор, Элис О’Коннелл, Джон Невилл
    -
    Описание: В тихом пригороде Лондона живет счастливая чета Мэннингов. Джеймс - богатый и успешный адвокат, Энн - заботливая домохозяйка. Но однажды их налаженную жизнь омрачает трагическое событие: под колесами автомобиля погибает муж их домработницы. Вскоре у Джеймса появляются подозрения, что сосед Билл Бьюл, недавно приехавший из Америки, может быть замешан в этом преступлении. Джеймс начинает собственное расследование случившегося, и вскоре выясняется, что за благополучным фасадом его семейной жизни скрывается не одна тайна...

    >>> Собственная запись со спутника Eutelsat 36A/36B (36°E) | TV1000 Premium HD (эфир 14.10.2016г.)
    Тип релиза: HDTV 1080i
    Контейнер: MKV
    Видео: MPEG-4 AVC / PAL 16:9 / 1920x1080 (1,85:1) / 9417 kbps / 25,000 fps / 0.091 bit/pixel / High@L4
    Аудио 1: Russian / Dolby Digital Audio / 2.0 Ch / 48 kHz / 192 kbps / 16 bit | DUB | SDI Media
    Аудио 2: Russian / MPEG-2 Audio / 2.0 Ch / 48 kHz / 192 kbps / 16 bit | DUB | SDI Media

    MediaInfo

    Общее
    Уникальный идентификатор                 : 208896187513840897201507972231989062670 (0x9D27F139452B0B70AD21134F279C6C0E)
    Полное имя                               : D:\Separate Lies 2014 1080i HDTV DD2.0 MPEG4-flaSH-I\Separate Lies 2014 1080i HDTV DD2.0 MPEG4.mkv
    Формат                                   : Matroska
    Версия формата                           : Version 4 / Version 2
    Размер файла                             : 5,56 Гбайт
    Продолжительность                        : 1 ч. 21 м.
    Общий поток                              : 9805 Кбит/сек
    Название фильма                          : Release for RuTracker © flaSI-I
    Дата кодирования                         : UTC 2016-10-14 21:53:35
    Программа кодирования                    : mkvmerge v9.4.2 ('So High') 64bit
    Библиотека кодирования                   : libebml v1.3.4 + libmatroska v1.4.5
    Видео
    Идентификатор                            : 1
    Формат                                   : AVC
    Формат/Информация                        : Advanced Video Codec
    Профиль формата                          : High@L4
    Параметр CABAC формата                   : Да
    Параметр ReFrames формата                : 4 кадра
    Идентификатор кодека                     : V_MPEG4/ISO/AVC
    Продолжительность                        : 1 ч. 21 м.
    Битрейт                                  : 9417 Кбит/сек
    Ширина                                   : 1920 пикселей
    Высота                                   : 1080 пикселей
    Соотношение сторон                       : 16:9
    Режим частоты кадров                     : Переменный
    Частота кадров                           : 50,000 кадров/сек
    Частота кадров в оригинале               : 25,000 кадров/сек
    Стандарт вещания                         : Component
    Цветовое пространство                    : YUV
    Субдискретизация насыщенности            : 4:2:0
    Битовая глубина                          : 8 бит
    Тип развёртки                            : Чересстрочная
    Метод сохранения типа развёртки          : Раздельные поля
    Порядок развёртки                        : Верхнее поле первое
    Бит/(Пиксели*Кадры)                      : 0.091
    Размер потока                            : 5,34 Гбайт (96%)
    Язык                                     : English
    Default                                  : Да
    Forced                                   : Нет
    Цветовой диапазон                        : Limited
    Основные цвета                           : BT.709
    Характеристики трансфера                 : BT.709
    Коэффициенты матрицы                     : BT.709
    Аудио #1
    Идентификатор                            : 2
    Формат                                   : AC-3
    Формат/Информация                        : Audio Coding 3
    Расширение режима                        : CM (complete main)
    Параметр Endianness формата              : Big
    Идентификатор кодека                     : A_AC3
    Продолжительность                        : 1 ч. 21 м.
    Вид битрейта                             : Постоянный
    Битрейт                                  : 192 Кбит/сек
    Каналы                                   : 2 канала
    Расположение каналов                     : Front: L R
    Частота                                  : 48,0 КГц
    Частота кадров                           : 31,250 кадров/сек (1536 spf)
    Метод сжатия                             : С потерями
    Размер потока                            : 112 Мбайт (2%)
    Заголовок                                : DUB | SDI Media | DD 2.0
    Язык                                     : Russian
    Default                                  : Да
    Forced                                   : Нет
    Аудио #2
    Идентификатор                            : 3
    Формат                                   : MPEG Audio
    Версия формата                           : Version 1
    Профиль формата                          : Layer 2
    Идентификатор кодека                     : A_MPEG/L2
    Идентификатор кодека/Подсказка           : MP2
    Продолжительность                        : 1 ч. 21 м.
    Вид битрейта                             : Постоянный
    Битрейт                                  : 192 Кбит/сек
    Каналы                                   : 2 канала
    Частота                                  : 48,0 КГц
    Частота кадров                           : 41,667 кадра/сек (1152 spf)
    Метод сжатия                             : С потерями
    Размер потока                            : 112 Мбайт (2%)
    Заголовок                                : DUB | SDI Media | DD 2.0
    Язык                                     : Russian
    Default                                  : Нет
    Forced                                   : Нет

    Скриншоты

    -

    Скачать .torrent

    Скачать торрент-файл бесплатно и на максимальной скорости!

    Как скачивать? · Что такое торрент? · Рейтинг и ограничения

    !ВНИМАНИЕ!
    Сайт не распространяет и не хранит электронные версии произведений, а занимается лишь лишь предоставлением доступа к создаваемому пользователями каталогу ссылок на торрент-файлы, которые содержат только списки хеш-сумм, убедительная просьба с жалобами обращаться напрямую к пользователю. Файлы для обмена на трекере предоставлены пользователями сайта, и администрация не несёт ответственности за их содержание. Просьба не заливать файлы, защищенные авторскими правами, а также файлы нелегального содержания!


    _________________
    [Профиль] [ЛС]
    Показать сообщения:    
    Ответить на тему

    Текущее время: Сегодня, в 13:01

    Часовой пояс: GMT + 2



    Вы не можете начинать темы
    Вы не можете отвечать на сообщения
    Вы не можете редактировать свои сообщения
    Вы не можете удалять свои сообщения
    Вы не можете голосовать в опросах
    Вы не можете прикреплять файлы к сообщениям
    Вы не можете скачивать файлы