BitTorrentTracker PerecTracker.org
BitTorrentTracker PerecTracker.org
    
Регистрация  ·  Вход
 
 · 
Забыли пароль?

  • И гаснет свет... / Lights Out (Дэвид Ф. Сандберг / David F. Sandberg) [2016, США, Ужасы, триллер, BDRip] Dub (iTunes) + Sub Rus

    Ответить на тему
     
    Автор Сообщение

    rechyn

    Создавать темы 17-Окт-2016 22:30

           

    [Цитировать]

    И гаснет свет... / Lights Out
    Страна: США
    Жанр: Ужасы, триллер
    Год выпуска: 2016
    Продолжительность: 01:20:57
    Перевод: Профессиональный (дублированный) iTunes
    Cубтитры: Русские форсированные (отдельно, srt)
    Режиссер: Дэвид Ф. Сандберг / David F. Sandberg
    В ролях: Тереза Палмер, Гэбриел Бейтман, Александр ДиПерсиа, Билли Бёрк, Мария Белло, Алисия Вела-Бэйли, Энди Ошо, Роландо Бойс, Мария Расселл, Элизабет Пан
    Описание: Когда Ребекка покинула родной дом, она думала, что её детские страхи остались позади. Ребенком она никогда не была уверена, что реально, а что нет, когда гас свет, и теперь её младший брат Мартин переживает те же необъяснимые и ужасные события, которые когда-то испытывали на прочность её рассудок и угрожали её безопасности. Пугающее нечто, таинственным образом привязанное к их матери Софи, появилось вновь. Но на этот раз Ребекка подбирается к разгадке истины, и уже не остается сомнений в том, что их жизни в опасности, как только будет погашен свет.

    Релиз от группы MegaPeer
    Сэмпл
    Качество видео: BDRip / Исх. LIGHTS_OUT_REMUX_HDCLUB
    Формат видео: AVI
    Видео: 720x304 (2.37:1), 23.976 fps, XviD build 73 ~2121 kbps avg, 0.40 bit/pixel
    Аудио: 48 kHz, AC3 Dolby Digital, 3/2 (L,C,R,l,r) + LFE ch, ~384 kbps-

    MediaInfo

    ОбщееПолное имя : D:\Lights.Out.2016.BDRip.1.42Gb.MegaPeer\Lights.Out.2016.BDRip.1.42Gb.MegaPeer.aviФормат : AVIФормат/Информация : Audio Video InterleaveРазмер файла : 1,42 ГбайтПродолжительность : 1 ч. 20 м.Общий поток : 2513 Кбит/сек
    ВидеоИдентификатор : 0Формат : MPEG-4 VisualПрофиль формата : Advanced Simple@L5Параметр BVOP формата : 1Параметр QPel формата : НетПараметр GMC формата : Без точки переходаПараметр матрицы формата : ВыборочнаяИдентификатор кодека : XVIDИдентификатор кодека/Подсказка : XviDПродолжительность : 1 ч. 20 м.Битрейт : 2122 Кбит/секШирина : 720 пикселейВысота : 304 пикселяСоотношение сторон : 2,35:1Частота кадров : 23,976 (24000/1001) кадра/секЦветовое пространство : YUVСубдискретизация насыщенности : 4:2:0Битовая глубина : 8 битТип развёртки : ПрогрессивнаяМетод сжатия : С потерямиБит/(Пиксели*Кадры) : 0.404Размер потока : 1,20 Гбайт (84%)Библиотека кодирования : XviD 73
    АудиоИдентификатор : 1Формат : AC-3Формат/Информация : Audio Coding 3Расширение режима : CM (complete main)Параметр Endianness формата : BigИдентификатор кодека : 2000Продолжительность : 1 ч. 20 м.Вид битрейта : ПостоянныйБитрейт : 384 Кбит/секКаналы : 6 каналовРасположение каналов : Front: L C R, Side: L R, LFEЧастота : 48,0 КГцЧастота кадров : 31,250 кадров/сек (1536 spf)Метод сжатия : С потерямиРазмер потока : 222 Мбайт (15%)Выравнивание : Соединение по промежуткамПродолжительность промежутка : 64 мс. (1,53 видеокадра)Время предзагрузки промежутка : 192 мс.Заголовок : iTunes

    Скриншоты

    -
    Скачать .torrent

    Скачать торрент-файл бесплатно и на максимальной скорости!

    Как скачивать? · Что такое торрент? · Рейтинг и ограничения

    !ВНИМАНИЕ!
    Сайт не распространяет и не хранит электронные версии произведений, а занимается лишь лишь предоставлением доступа к создаваемому пользователями каталогу ссылок на торрент-файлы, которые содержат только списки хеш-сумм, убедительная просьба с жалобами обращаться напрямую к пользователю. Файлы для обмена на трекере предоставлены пользователями сайта, и администрация не несёт ответственности за их содержание. Просьба не заливать файлы, защищенные авторскими правами, а также файлы нелегального содержания!


    _________________
    [Профиль] [ЛС]
    Показать сообщения:    
    Ответить на тему

    Текущее время: Сегодня, в 12:17

    Часовой пояс: GMT + 2



    Вы не можете начинать темы
    Вы не можете отвечать на сообщения
    Вы не можете редактировать свои сообщения
    Вы не можете удалять свои сообщения
    Вы не можете голосовать в опросах
    Вы не можете прикреплять файлы к сообщениям
    Вы не можете скачивать файлы