BitTorrentTracker PerecTracker.org
BitTorrentTracker PerecTracker.org
    
Регистрация  ·  Вход
 
 · 
Забыли пароль?

  • Секреты секса и любви / Kiki, el amor se hace (Пако Леон / Paco León) [2016, Испания, Комедия, HDRip] Dub (iTunes)

    Ответить на тему
     
    Автор Сообщение

    rechyn

    Создавать темы 17-Окт-2016 22:30

           

    [Цитировать]

    Секреты секса и любви / Kiki, el amor se hace
    Страна: Испания
    Студия: Instituto de la Cinematografía y de las Artes Audiovisuales (ICAA), Telecinco Cinema
    Жанр: Комедия
    Год выпуска: 2016
    Продолжительность: 01:42:05
    Перевод: Профессиональный (дублированный) iTunes
    Cубтитры: нет
    Режиссер: Пако Леон / Paco León
    В ролях: Наталия де Молина, Алекс Гарсия, Джакобо Санчес, Сильвия Рей, Пако Леон, Ана Кац, Белен Куэста, Кандела Пенья, Луис Кальехо
    Описание: Жарким летом в Мадриде пять пар в томлении страсти открывают для себя весьма неожиданные формы сексуального влечения. Изумление и страх перед неведомыми удовольствиями сменяются неконтролируемым желанием. Табу рушатся, и теперь ничто не в силах удержать героев от любовных экспериментов.

    Релиз от группы MegaPeer
    Сэмпл
    Качество видео: HDRip / Исх. Kiki.El.Amor.Se.Hace.2016.BDRip.1080p.ExKinoRay
    Формат видео: AVI
    Видео: 720x304 (2.37:1), 24 fps, XviD build 73 ~ 1651 kbps, 0.39 bit/pixel
    Аудио: 48 kHz, AC3, 6 ch, 384 kbps-

    MediaInfo

    ОбщееПолное имя : D:\Quickie.Love.Is.So.2016.HDRip.1.46Gb.MegaPeer.aviФормат : AVIФормат/Информация : Audio Video InterleaveРазмер файла : 1,46 ГбайтПродолжительность : 1 ч. 42 м.Общий поток : 2044 Кбит/сек
    ВидеоИдентификатор : 0Формат : MPEG-4 VisualПрофиль формата : Advanced Simple@L5Параметр BVOP формата : 1Параметр QPel формата : НетПараметр GMC формата : Без точки переходаПараметр матрицы формата : ВыборочнаяИдентификатор кодека : XVIDИдентификатор кодека/Подсказка : XviDПродолжительность : 1 ч. 42 м.Битрейт : 1652 Кбит/секШирина : 720 пикселейВысота : 304 пикселяСоотношение сторон : 2,35:1Частота кадров : 24,000 кадра/секЦветовое пространство : YUVСубдискретизация насыщенности : 4:2:0Битовая глубина : 8 битТип развёртки : ПрогрессивнаяМетод сжатия : С потерямиБит/(Пиксели*Кадры) : 0.314Размер потока : 1,18 Гбайт (81%)Библиотека кодирования : XviD 73
    АудиоИдентификатор : 1Формат : AC-3Формат/Информация : Audio Coding 3Расширение режима : CM (complete main)Параметр Endianness формата : BigИдентификатор кодека : 2000Продолжительность : 1 ч. 42 м.Вид битрейта : ПостоянныйБитрейт : 384 Кбит/секКаналы : 6 каналовРасположение каналов : Front: L C R, Side: L R, LFEЧастота : 48,0 КГцЧастота кадров : 31,250 кадров/сек (1536 spf)Метод сжатия : С потерямиРазмер потока : 280 Мбайт (19%)Выравнивание : Соединение по промежуткамПродолжительность промежутка : 64 мс. (1,54 видеокадра)Время предзагрузки промежутка : 192 мс.Заголовок : iTunes

    Скриншоты

    -
    Скачать .torrent

    Скачать торрент-файл бесплатно и на максимальной скорости!

    Как скачивать? · Что такое торрент? · Рейтинг и ограничения

    !ВНИМАНИЕ!
    Сайт не распространяет и не хранит электронные версии произведений, а занимается лишь лишь предоставлением доступа к создаваемому пользователями каталогу ссылок на торрент-файлы, которые содержат только списки хеш-сумм, убедительная просьба с жалобами обращаться напрямую к пользователю. Файлы для обмена на трекере предоставлены пользователями сайта, и администрация не несёт ответственности за их содержание. Просьба не заливать файлы, защищенные авторскими правами, а также файлы нелегального содержания!


    _________________
    [Профиль] [ЛС]
    Показать сообщения:    
    Ответить на тему

    Текущее время: Сегодня, в 22:18

    Часовой пояс: GMT + 2



    Вы не можете начинать темы
    Вы не можете отвечать на сообщения
    Вы не можете редактировать свои сообщения
    Вы не можете удалять свои сообщения
    Вы не можете голосовать в опросах
    Вы не можете прикреплять файлы к сообщениям
    Вы не можете скачивать файлы